TORRENTS45.XYZ

Скачать Варшавская битва 1920 года / 1920 Bitwa Warszawska (2011) BDRip [H.264/1080p] 3D [Вертикальная анаморфная стереопара]


Варшавская битва 1920 года / 1920 Bitwa Warszawska (2011) BDRip [H.264/1080p] 3D
Производство: Польша
Жанр: Мюзикл, Драма, Мелодрама, Военный, История

Режиссер: Ежи Гоффман
Актеры: Борис Шиц, Наташа Урбаньска, Даниэль Ольбрыхский, Адам Ференцы, Иржи Бончак, Богуслав Линда, Эва Висьневска, Александр Домогаров, Ольга Кабо, Адам Стшелецкий

Описание:
О знаменитом сражении, в котором конная армия красного командарма Тухачевского была разгромлена войсками независимой буржуазной Польши под командованием Пилсудского



Продолжительность: 01:55:27
Качество видео: BDRip
Перевод: Одноголосый закадровый (Сергей Синица)
Субтитры: Отсутствуют

Видео: AVC/H.264, ~15,4 Mbps, 1920x1080
Аудио 1: AC3 5.1, 448 kbps [Русский]
Аудио 2: AC3 5.1, 640 kbps [Польский]

Mediainfo:

Общее
Уникальный идентификатор : 208594884604934149039748180775496451267 (0x9CEDE9D7E7198D38A44A4DC2609A04C3)
Полное имя : F:\my films\BATTLE_WARSAW_3D.mkv
Формат : Matroska
Версия формата : Version 2
Размер файла : 13,5 Гбайт
Продолжительность : 1 ч. 55 м.
Общий поток : 16,8 Мбит/сек
Название фильма : BATTLE_WARSAW_3D_HO/U
Дата кодирования : UTC 2014-06-15 08:25:30
Программа кодирования : mkvmerge v5.3.0 ('I could have danced') built on Feb 9 2012 10:38:07
Библиотека кодирования : libebml v1.2.3 + libmatroska v1.3.0

Видео
Идентификатор : 1
Формат : AVC
Формат/Информация : Advanced Video Codec
Профиль формата : High@L4.1
Параметр CABAC формата : Да
Параметр ReFrames формата : 4 кадра
Идентификатор кодека : V_MPEG4/ISO/AVC
Продолжительность : 1 ч. 55 м.
Битрейт : 15,4 Мбит/сек
Ширина : 1920 пикселей
Высота : 1080 пикселей
Соотношение сторон : 16:9
Соотношение сторон в оригинале : 16:9
Режим частоты кадров : Постоянный
Частота кадров : 23,976 кадра/сек
Цветовое пространство : YUV
Субдискретизация насыщенности : 4:2:0
Битовая глубина : 8 бит
Тип развёртки : Прогрессивная
Бит/(Пиксели*Кадры) : 0.309
Размер потока : 12,4 Гбайт (92%)
Заголовок : rip by I/N
Библиотека кодирования : x264 core 128 r2216M 198a7ea
Настройки программы : cabac=1 / ref=4 / deblock=1:-3:-3 / analyse=0x3:0x133 / me=umh / subme=10 / psy=1 / psy_rd=1.00:0.15 / mixed_ref=1 / me_range=32 / chroma_me=1 / trellis=2 / 8x8dct=1 / cqm=0 / deadzone=21,11 / fast_pskip=1 / chroma_qp_offset=-3 / threads=8 / lookahead_threads=1 / sliced_threads=0 / nr=0 / decimate=1 / interlaced=0 / bluray_compat=0 / constrained_intra=0 / bframes=6 / b_pyramid=2 / b_adapt=2 / b_bias=0 / direct=3 / weightb=1 / open_gop=0 / weightp=2 / keyint=230 / keyint_min=23 / scenecut=40 / intra_refresh=0 / rc_lookahead=60 / rc=crf / mbtree=1 / crf=17.0 / qcomp=0.60 / qpmin=0 / qpmax=69 / qpstep=4 / vbv_maxrate=40000 / vbv_bufsize=30000 / crf_max=30.0 / nal_hrd=none / ip_ratio=1.40 / aq=1:1.00
Default : Да
Forced : Нет

Аудио #1
Идентификатор : 2
Формат : AC-3
Формат/Информация : Audio Coding 3
Расширение режима : CM (complete main)
Параметр Endianness формата : Big
Идентификатор кодека : A_AC3
Продолжительность : 1 ч. 55 м.
Вид битрейта : Постоянный
Битрейт : 448 Кбит/сек
Каналы : 6 каналов
Расположение каналов : Front: L C R, Side: L R, LFE
Частота : 48,0 КГц
Битовая глубина : 16 бит
Метод сжатия : С потерями
Задержка видео : -200 мс.
Размер потока : 370 Мбайт (3%)
Заголовок : VO (Сергей Синица)
Язык : Russian
Default : Да
Forced : Нет

Аудио #2
Идентификатор : 3
Формат : AC-3
Формат/Информация : Audio Coding 3
Расширение режима : CM (complete main)
Параметр Endianness формата : Big
Идентификатор кодека : A_AC3
Продолжительность : 1 ч. 55 м.
Вид битрейта : Постоянный
Битрейт : 640 Кбит/сек
Каналы : 6 каналов
Расположение каналов : Front: L C R, Side: L R, LFE
Частота : 48,0 КГц
Битовая глубина : 16 бит
Метод сжатия : С потерями
Размер потока : 529 Мбайт (4%)
Заголовок : Original
Язык : Polish
Default : Нет
Forced : Нет

Меню
00:00:00.000 : en:00:00:00.000
00:10:03.186 : en:00:10:03.186
00:28:45.933 : en:00:28:45.933
00:57:08.467 : en:00:57:08.467
01:02:23.198 : en:01:02:23.198
01:23:27.044 : en:01:23:27.044
01:36:51.347 : en:01:36:51.347
01:49:11.503 : en:01:49:11.503
Проверено на встроенном плейере ТВ Samsung-D6500
Скриншоты:



Детали торрента:
Название:Варшавская битва 1920 года / 1920 Bitwa Warszawska (2011) BDRip [H.264/1080p] 3D [Вертикальная анаморфная стереопара]
Дата добавления:15 Июн 2014 12:24:55
Размер:13,5 GB
Раздают:1
Качают:0
Форум:Зарубежные Фильмы (3D)

All rights reserved © 2015-2018