TORRENTS45.XYZ

Скачать Доверие / Доверься / Trust (1990) BDRip [H.264/720p-LQ] [Hi10P]


Доверие / Доверься / Trust (1990) BDRip [H.264/720p-LQ] [Hi10P]
Год выпуска: 1990
Жанр: Драма, Комедия
Перевод: Авторский (одноголосый закадровый), Любительский (одноголосый закадровый)
Оригинальная аудио дорожка: Английская
Язык субтитров: Русский
Вид субтитров: Вшитые

Описание фильма: Молодая девушка ссорится со своими родителями и уходит из дома. Она бродит по улицам и встречает разных людей. Сперва домохозяйку, которая рассказывает ей о своих проблемах и немного помогает. Затем мужчину, который берёт бездомную девушку к себе домой. Между парочкой возникает любовь...

Режиссер: Хэл Хартли

Актеры: Эдриенн Шелли, Мартин Донован, Меррит Нельсон, Джон МакКей, Иди Фалько, Гэри Соэр, Мэтт Мэллой, Сюзэнн Костоллос, Джеф Ховард, Карен Сайлас

Качество видео: BDRip
Продолжительность: 01:46:23



Основной файл весит 2,23гб с одной звуковой дорожкой!

Видео: MPEG-4 AVC/H.264, 1280x720(16:9), 23,976fps, 2757 Кbps, 0.125bit/pixel
Аудио 1: AVO Russian, AC3, 1ch, 48 kHz, 192 kbps, (Одноголосый - Есарев)
Аудио 2: VO Russian, AC3, 1ch, 48 kHz, 192 kbps, (Одноголосый) - Отдельным файлом
Аудио 3: English, AC3, 1ch, 48 kHz, 192 kbps, (Оригинал) - Отдельным файлом

MediaInfo

Общее
Полное имя : Доверие (1990) BDRip-AVC.mkv
Формат : Matroska
Версия формата : Version 4 / Version 2
Размер файла : 2,52 Гбайт
Продолжительность : 1 ч. 46 м.
Общий поток : 3393 Кбит/сек
Название фильма : Доверие / Доверься / Trust (1990) BDRip-AVC (Sinteros)
Программа кодирования : mkvmerge v6.9.1 ('Blue Panther') 64bit built on Apr 18 2014 18:23:38
Библиотека кодирования : libebml v1.3.0 + libmatroska v1.4.1
Attachment : Yes

Видео
Идентификатор : 1
Формат : AVC
Формат/Информация : Advanced Video Codec
Профиль формата : High 10@L4.1
Параметр CABAC формата : Да
Параметр ReFrames формата : 11 кадров
Идентификатор кодека : V_MPEG4/ISO/AVC
Продолжительность : 1 ч. 46 м.
Битрейт : 2757 Кбит/сек
Ширина : 1280 пикселей
Высота : 720 пикселей
Соотношение сторон : 16:9
Режим частоты кадров : Постоянный
Частота кадров : 23,976 кадра/сек
Цветовое пространство : YUV
Субдискретизация насыщенности : 4:2:0
Битовая глубина : 10 бит
Тип развёртки : Прогрессивная
Бит/(Пиксели*Кадры) : 0.125
Размер потока : 2,04 Гбайт (81%)
Заголовок : MPEG-4 AVC/H.264, 1280x720(16:9), 23,976fps, 2757 Кbps, 0.125bit/pixel
Библиотека кодирования : x264 core 133 r2334 a3ac64b
Настройки программы : cabac=1 / ref=11 / deblock=1:-1:-1 / analyse=0x3:0x133 / me=tesa / subme=10 / psy=1 / psy_rd=1.00:0.15 / mixed_ref=1 / me_range=24 / chroma_me=1 / trellis=2 / 8x8dct=1 / cqm=0 / deadzone=21,11 / fast_pskip=1 / chroma_qp_offset=-3 / threads=12 / lookahead_threads=1 / sliced_threads=0 / nr=0 / decimate=1 / interlaced=0 / bluray_compat=0 / constrained_intra=0 / bframes=6 / b_pyramid=2 / b_adapt=2 / b_bias=0 / direct=1 / weightb=1 / open_gop=0 / weightp=2 / keyint=250 / keyint_min=23 / scenecut=40 / intra_refresh=0 / rc_lookahead=60 / rc=crf / mbtree=1 / crf=18.0 / qcomp=0.60 / qpmin=0 / qpmax=81 / qpstep=4 / ip_ratio=1.40 / aq=1:1.00
Язык : English
Default : Да
Forced : Нет

Аудио #1
Идентификатор : 2
Формат : AC-3
Формат/Информация : Audio Coding 3
Расширение режима : CM (complete main)
Параметр Endianness формата : Big
Идентификатор кодека : A_AC3
Продолжительность : 1 ч. 46 м.
Вид битрейта : Постоянный
Битрейт : 192 Кбит/сек
Каналы : 1 канал
Расположение каналов : Front: C
Частота : 48,0 КГц
Битовая глубина : 16 бит
Метод сжатия : С потерями
Размер потока : 146 Мбайт (6%)
Заголовок : AVO Russian, AC3, 1ch, 48 kHz, 192 kbps, (Одноголосый - Есарев)
Язык : Russian
Default : Да
Forced : Нет

Аудио #2 - Отдельным файлом
Идентификатор : 3
Формат : AC-3
Формат/Информация : Audio Coding 3
Расширение режима : CM (complete main)
Параметр Endianness формата : Big
Идентификатор кодека : A_AC3
Продолжительность : 1 ч. 46 м.
Вид битрейта : Постоянный
Битрейт : 192 Кбит/сек
Каналы : 1 канал
Расположение каналов : Front: C
Частота : 48,0 КГц
Битовая глубина : 16 бит
Метод сжатия : С потерями
Размер потока : 146 Мбайт (6%)
Заголовок : VO Russian, AC3, 1ch, 48 kHz, 192 kbps, (Одноголосый) - Отдельным файлом
Язык : Russian
Default : Нет
Forced : Нет

Аудио #2 - Отдельным файлом
Идентификатор : 4
Формат : AC-3
Формат/Информация : Audio Coding 3
Расширение режима : CM (complete main)
Параметр Endianness формата : Big
Идентификатор кодека : A_AC3
Продолжительность : 1 ч. 46 м.
Вид битрейта : Постоянный
Битрейт : 192 Кбит/сек
Каналы : 1 канал
Расположение каналов : Front: C
Частота : 48,0 КГц
Битовая глубина : 16 бит
Метод сжатия : С потерями
Размер потока : 146 Мбайт (6%)
Заголовок : English, AC3, 1ch, 48 kHz, 192 kbps, (Оригинал) - Отдельным файлом
Язык : English
Default : Нет
Forced : Нет

Текст
Идентификатор : 5
Формат : UTF-8
Идентификатор кодека : S_TEXT/UTF8
Идентификатор кодека/Информация : UTF-8 Plain Text
Язык : Russian
Default : Нет
Forced : Нет

Меню
00:00:00.000 : en:
00:09:22.352 : en:
00:19:10.522 : en:
00:32:44.085 : en:
00:41:55.429 : en:
00:53:44.054 : en:
01:16:31.670 : en:
01:30:06.524 : en:
01:46:22.667 : en:
Примечание: Рип в High 10 Profile, в настоящее время не поддерживается большинством аппаратных проигрывателей, поэтому предназначен исключительно для воспроизведения на ПК. Для корректного воспроизведения может потребоваться обновление ПО.

Скриншоты:



Доверие на Torrents45.xyz

Смотреть Online


Детали торрента:
Название:Доверие / Доверься / Trust (1990) BDRip [H.264/720p-LQ] [Hi10P]
Дата добавления:10 Июн 2014 23:40:40
Размер:2,52 GB
Раздают:
Качают:0
Форум:Авторское кино

All rights reserved © 2015-2019