TORRENTS45.XYZ

Скачать Одна миллиардная доля / Parts Per Billion (2014) BDRip [1080p] [EN / EN Sub]


Одна миллиардная доля / Parts Per Billion (2014) BDRip [1080p] [EN / EN Sub]
Год выпуска: 2014
Жанр: Фантастика

Описание фильма:
Сюжет фильма «Одна миллиардная доля» (Parts Per Billion) состоит из переплетенных между собой историй трех пар, которые, оказавшись перед лицом катастрофической ситуации, вынуждены принимать решения, серьезно влияющие на их судьбы.

Вдохновленные, а порой и просто ослепленные своей страстью, герои фильма «Одна миллиардная доля» Лен (Джош Хартнетт), Миа (Розарио Доусон), Энди (Фрэнк Ланджелла), Эстер (Джина Роулендс), Эрик (Пенн Бэджли) и Анна (Тереза Палмер) оказываются столь же испорчены и красивы, как и любой из тех миллиардов, кто сталкивается с биологической катастрофой.

Режиссер: Брайан Хориути
Актеры: Тереза Палмер, Алексис Бледел, Розарио Доусон, Джош Хартнетт, Пенн Бэджли, Фрэнк Лангелла, Джина Роулэндс, Хилл Харпер, Конор Лесли, Нед Вон

Продолжительность: 01:41:55
Качество видео: BDRip
Перевод: Отсутствует
Язык: Английский
Язык субтитров: Английскиe
Вид субтитров: Вшитые, отключаемые



Видеокодек: MPEG-4 AVC/H.264
Битрейт видео: ~8 384 Kbps
Размер кадра: 1920x1040
Аудиокодек: AC3 5.1
Битрейт аудио: 640 Kbps
Сэмпл: Ссылка

Screenlist

MediaInfo

Parts Per Billion-1080p.mkv
Format : Matroska
Format version : Version 2
File size : 6.55 GiB
Duration : 1h 41mn
Overall bit rate : 9 207 Kbps
Encoded date : UTC 2014-06-08 02:23:01
Writing application : mkvmerge v6.5.0 ('Isn't she lovely') built on Oct 20 2013 12:50:05
Writing library : libebml v1.3.0 + libmatroska v1.4.1

Video
ID : 1
Format : AVC
Format/Info : Advanced Video Codec
Format profile : High@L4.1
Format settings, CABAC : Yes
Format settings, ReFrames : 4 frames
Codec ID : V_MPEG4/ISO/AVC
Duration : 1h 41mn
Bit rate : 8 384 Kbps
Nominal bit rate : 8 858 Kbps
Width : 1 920 pixels
Height : 1 040 pixels
Display aspect ratio : 1.85:1
Frame rate : 23.976 fps
Color space : YUV
Chroma subsampling : 4:2:0
Bit depth : 8 bits
Scan type : Progressive
Bits/(Pixel*Frame) : 0.175
Stream size : 5.97 GiB (91%)
Writing library : x264 core 142 r2431 ac76440
Encoding settings : cabac=1 / ref=4 / deblock=1:0:0 / analyse=0x3:0x133 / me=umh / subme=8 / psy=1 / psy_rd=1.00:0.00 / mixed_ref=1 / me_range=16 / chroma_me=1 / trellis=1 / 8x8dct=1 / cqm=0 / deadzone=21,11 / fast_pskip=0 / chroma_qp_offset=-2 / threads=12 / lookahead_threads=2 / sliced_threads=0 / nr=0 / decimate=1 / interlaced=0 / bluray_compat=0 / constrained_intra=0 / bframes=3 / b_pyramid=2 / b_adapt=2 / b_bias=0 / direct=3 / weightb=1 / open_gop=0 / weightp=2 / keyint=250 / keyint_min=23 / scenecut=40 / intra_refresh=0 / rc_lookahead=50 / rc=2pass / mbtree=1 / bitrate=8858 / ratetol=1.0 / qcomp=0.60 / qpmin=0 / qpmax=69 / qpstep=4 / cplxblur=20.0 / qblur=0.5 / ip_ratio=1.40 / aq=1:1.00
Language : English
Default : Yes
Forced : No

Audio
ID : 2
Format : AC-3
Format/Info : Audio Coding 3
Mode extension : CM (complete main)
Format settings, Endianness : Big
Codec ID : A_AC3
Duration : 1h 41mn
Bit rate mode : Constant
Bit rate : 640 Kbps
Channel(s) : 6 channels
Channel positions : Front: L C R, Side: L R, LFE
Sampling rate : 48.0 KHz
Bit depth : 16 bits
Compression mode : Lossy
Stream size : 467 MiB (7%)
Language : English
Default : Yes
Forced : No

Text
ID : 3
Format : UTF-8
Codec ID : S_TEXT/UTF8
Codec ID/Info : UTF-8 Plain Text
Language : English
Default : Yes
Forced : No

Menu
00:00:00.000 : en:00:00:00.000
00:07:24.819 : en:00:07:24.819
00:15:12.203 : en:00:15:12.203
00:24:18.082 : en:00:24:18.082
00:28:43.180 : en:00:28:43.180
00:39:55.476 : en:00:39:55.476
00:47:40.399 : en:00:47:40.399
00:55:25.405 : en:00:55:25.405
01:03:22.465 : en:01:03:22.465
01:14:21.957 : en:01:14:21.957
01:21:38.227 : en:01:21:38.227
01:34:06.724 : en:01:34:06.724
Скриншоты:


Смотреть Online


Детали торрента:
Название:Одна миллиардная доля / Parts Per Billion (2014) BDRip [1080p] [EN / EN Sub]
Дата добавления:08 Июн 2014 14:04:41
Размер:6,55 GB
Раздают:
Качают:0
Форум:Фильмы в оригинале (HD, UHD, UHD-LQ)

All rights reserved © 2015-2019