TORRENTS45.XYZ

Скачать 24 часа: Проживи еще один день / 24: Live Another Day (2014) WEB-DLRip (Сезон 1 / Серии 1-12 из 12) NewStudio + NovaFilm


24 часа: Проживи еще один день / 24: Live Another Day (2014) WEB-DLRip (Сезон 1 / Серии 1-12 из 12) NewStudio + NovaFilm
Год выпуска: 2014
Страна: США
Жанр: боевик, триллер, драма, детектив

Перевод: Многоголосый закадровый, профессиональный - NewStudio + NovaFilm
&
Автор перевода: Madchester.ru
Редактор: Руслан Графт
Постер: Андрей Шапал
Прим.: Джека Бауэра озвучивает официальный голос ДУБЛЯЖА.


Дата мировой премьеры: 5 мая 2014

Режиссер: Джон Кассар, Адам Кэйн, Омар Мадха
Актеры: Кифер Сазерленд, Мэри Линн Райскаб, Ким Рейвер, Уильям Девайн, Ивонн Страховски, Мишель Фэйерли, Жиль Мэтти, Гбенга Акиннагбе, Бенджамин Брэтт, Стивен Фрай и др.

Описание фильма:
Прошло 4 года после событий восьмого дня оригинального сериала «24 часа». Действия разворачиваются в Лондоне, где готовится страшный теракт. Джек находится в бегах, его преследует ЦРУ, старые друзья теперь не на его стороне, но он готов пойти на все ради предотвращения теракта, который может изменить мир навсегда…

Продолжительность: ~00:44:00 серия
Качество видео: WEB-DLRip

Видеокодек: XviD
Формат: AVI
Битрейт видео: ~1460 kb/s
Размер кадра: 720x400 (16:9)
Аудио Rus Image: (MPEG Layer 3, 48,0 kHz, 2 ch, 128 kb/s) - многоголосый закадровый
Аудио Eng Image: (MPEG Layer 3, 48,0 kHz, 2 ch, 128 kb/s) - оригинал

Сэмпл
Все раздачи "24 часа: Проживи еще один день / 24: Live Another Day"

MediaInfo

Общее
Полное имя : D:\24 часа Проживи еще один день (Сезон 1) 24 Live Another Day (2014) WEB-DLRip - NewStudio\24.Live.Another.Day.s01e01.webdl.rus.newstudio.tv.novafilm.tv.avi
Формат : AVI
Формат/Информация : Audio Video Interleave
Размер файла : 549 Мбайт
Продолжительность : 44 м.
Общий поток : 1732 Кбит/сек
Программа кодирования : VirtualDubMod 1.5.10.2 (build 2540/release)
Библиотека кодирования : VirtualDubMod build 2540/release

Видео
Идентификатор : 0
Формат : MPEG-4 Visual
Профиль формата : Advanced Simple@L5
Параметр BVOP формата : 2
Параметр QPel формата : Нет
Параметр GMC формата : Без точки перехода
Параметр матрицы формата : Default (MPEG)
Идентификатор кодека : XVID
Идентификатор кодека/Подсказка : XviD
Продолжительность : 44 м.
Битрейт : 1462 Кбит/сек
Ширина : 720 пикселей
Высота : 400 пикселей
Соотношение сторон : 16:9
Частота кадров : 23,976 кадра/сек
Цветовое пространство : YUV
Субдискретизация насыщенности : 4:2:0
Битовая глубина : 8 бит
Тип развёртки : Прогрессивная
Метод сжатия : С потерями
Бит/(Пиксели*Кадры) : 0.212
Размер потока : 464 Мбайт (84%)
Библиотека кодирования : XviD 64

Аудио #1
Идентификатор : 1
Формат : MPEG Audio
Версия формата : Version 1
Профиль формата : Layer 3
Режим : Joint stereo
Расширение режима : MS Stereo
Идентификатор кодека : 55
Идентификатор кодека/Подсказка : MP3
Продолжительность : 44 м.
Вид битрейта : Постоянный
Битрейт : 128 Кбит/сек
Каналы : 2 канала
Частота : 48,0 КГц
Метод сжатия : С потерями
Размер потока : 40,6 Мбайт (7%)
Выравнивание : Соединение по промежуткам
Продолжительность промежутка : 42 мс. (1,00 видеокадр)
Время предзагрузки промежутка : 504 мс.

Аудио #2
Идентификатор : 2
Формат : MPEG Audio
Версия формата : Version 1
Профиль формата : Layer 3
Режим : Joint stereo
Расширение режима : MS Stereo
Идентификатор кодека : 55
Идентификатор кодека/Подсказка : MP3
Продолжительность : 44 м.
Вид битрейта : Постоянный
Битрейт : 128 Кбит/сек
Каналы : 2 канала
Частота : 48,0 КГц
Метод сжатия : С потерями
Размер потока : 40,6 Мбайт (7%)
Выравнивание : Соединение по промежуткам
Продолжительность промежутка : 42 мс. (1,00 видеокадр)
Время предзагрузки промежутка : 504 мс. : Нет

Список серий


01. 11:00 a.m.-12:00 p.m.
02. 12:00 p.m.-1:00 p.m.
03. 1:00 p.m.-2:00 p.m.
04. 2:00 p.m.-3:00 p.m.
05. 3:00 p.m.-4:00 p.m.
06. 4:00 p.m.-5:00 p.m.
07. 5:00 p.m.-6:00 p.m.
08. 6:00 p.m.-7:00 p.m.
09. 7:00 p.m.-8:00 p.m.
10. 8:00 p.m.-9:00 p.m.
11. 9:00 p.m.-10:00 p.m.
12. 10:00 p.m.-11:00 a.m.
Скриншоты:


Детали торрента:
Название:24 часа: Проживи еще один день / 24: Live Another Day (2014) WEB-DLRip (Сезон 1 / Серии 1-12 из 12) NewStudio + NovaFilm
Дата добавления:03 Ноя 2014 22:47:23
Размер:6,44 GB
Раздают:
Качают:0
Форум:Зарубежные сериалы

All rights reserved © 2015-2018