TORRENTS45.XYZ

Скачать Ahola - Tug Of War (2014) [FLAC|Lossless]<Hard-Rock>


Ahola - Tug Of War (2014)
Год: 2014
Жанр: Hard-Rock
Продолжительность: 00:52:41

Кодек: FLAC
Битрейт: Lossless
Тип битрейта: VBR

Треклист:
01. The End of the Line
02. Road of Creation
03. Tug of War
04. On the Run
05. Still Metal
06. Rock’n'Roll
07. One Among the Crowd
08. The Final Incantation
09. The Will You Always Had
10. I Need You
11. Dog
12. Age of Hubris
13. Beerland 2

Отчёт ЕАС:

Код:

Exact Audio Copy V1.0 beta 3 from 29. August 2011

EAC extraction logfile from 29. March 2014, 16:20

Ahola / Tug Of War

Used drive  : HL-DT-STBD-RE  BH12LS30   Adapter: 0  ID: 0

Read mode               : Secure
Utilize accurate stream : Yes
Defeat audio cache      : Yes
Make use of C2 pointers : No

Read offset correction                      : 667
Overread into Lead-In and Lead-Out          : No
Fill up missing offset samples with silence : Yes
Delete leading and trailing silent blocks   : No
Null samples used in CRC calculations       : Yes
Used interface                              : Native Win32 interface for Win NT & 2000
Gap handling                                : Appended to previous track

Used output format              : User Defined Encoder
Selected bitrate                : 1024 kBit/s
Quality                         : High
Add ID3 tag                     : No
Command line compressor         : C:\Program Files (x86)\Exact Audio Copy\Flac\flac.exe
Additional command line options : -8 -V -T "ARTIST=%artist%" -T "TITLE=%title%" -T "ALBUM=%albumtitle%" -T "DATE=%year%" -T "TRACKNUMBER=%tracknr%" -T "GENRE=%genre%" -T "PERFORMER=%albuminterpret%" -T "COMPOSER=%composer%" %haslyrics%--tag-from-file=LYRICS="%lyricsfile%"%haslyrics% -T "ALBUMARTIST=%albumartist%" -T "DISCNUMBER=%cdnumber%" -T "TOTALDISCS=%totalcds%" -T "TOTALTRACKS=%numtracks%" -T "COMMENT=%comment%" %source% -o %dest%

TOC of the extracted CD

     Track |   Start  |  Length  | Start sector | End sector
    ---------------------------------------------------------
        1  |  0:00.00 |  4:29.50 |         0    |    20224
        2  |  4:29.50 |  5:15.38 |     20225    |    43887
        3  |  9:45.13 |  4:02.07 |     43888    |    62044
        4  | 13:47.20 |  3:17.49 |     62045    |    76868
        5  | 17:04.69 |  4:03.28 |     76869    |    95121
        6  | 21:08.22 |  3:47.53 |     95122    |   112199
        7  | 24:56.00 |  4:27.42 |    112200    |   132266
        8  | 29:23.42 |  5:18.48 |    132267    |   156164
        9  | 34:42.15 |  3:16.26 |    156165    |   170890
       10  | 37:58.41 |  4:29.40 |    170891    |   191105
       11  | 42:28.06 |  4:20.45 |    191106    |   210650
       12  | 46:48.51 |  3:28.38 |    210651    |   226288
       13  | 50:17.14 |  2:24.04 |    226289    |   237092

Track  1

     Filename C:\EACRips\Ahola - Tug Of War\01. The End of the Line.wav

     Pre-gap length  0:00:02.00

     Peak level 97.3 %
     Extraction speed 1.1 X
     Track quality 100.0 %
     Test CRC B9ADDB6B
     Copy CRC B9ADDB6B
     Track not present in AccurateRip database
     Copy OK

Track  2

     Filename C:\EACRips\Ahola - Tug Of War\02. Road of Creation.wav

     Peak level 97.4 %
     Extraction speed 1.3 X
     Track quality 100.0 %
     Test CRC F036315E
     Copy CRC F036315E
     Track not present in AccurateRip database
     Copy OK

Track  3

     Filename C:\EACRips\Ahola - Tug Of War\03. Tug of War.wav

     Peak level 97.3 %
     Extraction speed 1.4 X
     Track quality 100.0 %
     Test CRC 0963637F
     Copy CRC 0963637F
     Track not present in AccurateRip database
     Copy OK

Track  4

     Filename C:\EACRips\Ahola - Tug Of War\04. On the Run.wav

     Peak level 97.3 %
     Extraction speed 1.4 X
     Track quality 100.0 %
     Test CRC A590EBA0
     Copy CRC A590EBA0
     Track not present in AccurateRip database
     Copy OK

Track  5

     Filename C:\EACRips\Ahola - Tug Of War\05. Still Metal.wav

     Peak level 97.3 %
     Extraction speed 1.4 X
     Track quality 99.9 %
     Test CRC DFB8B855
     Copy CRC DFB8B855
     Track not present in AccurateRip database
     Copy OK

Track  6

     Filename C:\EACRips\Ahola - Tug Of War\06. Rock’n'Roll.wav

     Peak level 97.3 %
     Extraction speed 1.4 X
     Track quality 99.9 %
     Test CRC C73B0B5C
     Copy CRC C73B0B5C
     Track not present in AccurateRip database
     Copy OK

Track  7

     Filename C:\EACRips\Ahola - Tug Of War\07. One Among the Crowd.wav

     Peak level 97.2 %
     Extraction speed 1.6 X
     Track quality 99.9 %
     Test CRC 66BF260C
     Copy CRC 66BF260C
     Track not present in AccurateRip database
     Copy OK

Track  8

     Filename C:\EACRips\Ahola - Tug Of War\08. The Final Incantation.wav

     Peak level 97.2 %
     Extraction speed 1.9 X
     Track quality 100.0 %
     Test CRC 1CBD40CE
     Copy CRC 1CBD40CE
     Track not present in AccurateRip database
     Copy OK

Track  9

     Filename C:\EACRips\Ahola - Tug Of War\09. The Will You Always Had.wav

     Peak level 97.3 %
     Extraction speed 1.8 X
     Track quality 100.0 %
     Test CRC 28FD35CC
     Copy CRC 28FD35CC
     Track not present in AccurateRip database
     Copy OK

Track 10

     Filename C:\EACRips\Ahola - Tug Of War\10. I Need You.wav

     Peak level 97.3 %
     Extraction speed 2.0 X
     Track quality 100.0 %
     Test CRC 49174ECB
     Copy CRC 49174ECB
     Track not present in AccurateRip database
     Copy OK

Track 11

     Filename C:\EACRips\Ahola - Tug Of War\11. Dog.wav

     Peak level 97.2 %
     Extraction speed 1.8 X
     Track quality 99.9 %
     Test CRC CFB4AF8A
     Copy CRC CFB4AF8A
     Track not present in AccurateRip database
     Copy OK

Track 12

     Filename C:\EACRips\Ahola - Tug Of War\12. Age of Hubris.wav

     Peak level 97.2 %
     Extraction speed 1.8 X
     Track quality 99.9 %
     Test CRC 946C1C1D
     Copy CRC 946C1C1D
     Track not present in AccurateRip database
     Copy OK

Track 13

     Filename C:\EACRips\Ahola - Tug Of War\13. Beerland 2.wav

     Peak level 58.4 %
     Extraction speed 2.0 X
     Track quality 100.0 %
     Test CRC 0C573AE6
     Copy CRC 0C573AE6
     Track not present in AccurateRip database
     Copy OK

None of the tracks are present in the AccurateRip database

No errors occurred

End of status report

---- CUETools DB Plugin V2.1.4

[CTDB TOCID: f6LRxpiwgB3conhnrdDHQt9KciM-] disk not present in database
Submit result: f6LRxpiwgB3conhnrdDHQt9KciM- has been uploaded

==== Log checksum 6A8407D8537F237C7DE804979899491B5C95510CD256395CDA21E149859F92E0 ====

Отчёт auCDtect Task manager:

Код:

-----------------------

DON'T MODIFY THIS FILE

-----------------------

PERFORMER: auCDtect Task Manager, ver. 1.6.0 RC1 build 1.6.0.1
Copyright (c) 2008-2010 y-soft. All rights reserved
http://y-soft.org

ANALYZER: auCDtect: CD records authenticity detector, version 0.8.2
Copyright (c) 2004 Oleg Berngardt. All rights reserved.
Copyright (c) 2004 Alexander Djourik. All rights reserved.

FILE: 13. Beerland 2.flac
  Size: 9286614 Hash: 7D9116BCBB86F6A462869EF38C05F86E Accuracy: -m0
  Conclusion: CDDA 100%
  Signature: 7B03DE920AB618CC8FBC5E865781186213BD5FD6
FILE: 12. Age of Hubris.flac
  Size: 26382577 Hash: A2DA488C355A8C848E47FFDF569E6C80 Accuracy: -m0
  Conclusion: CDDA 100%
  Signature: 41B965369C4DAEEFD7A9C276D0EE9900025DE5DF
FILE: 11. Dog.flac
  Size: 30971591 Hash: 790B128FD373CAFEA9E1B1056B5753DB Accuracy: -m0
  Conclusion: CDDA 100%
  Signature: DA1A3A01D9E9D93699AFCCBB3218745E6AC0D6A7
FILE: 10. I Need You.flac
  Size: 33408441 Hash: 6C2BDB5197B36531CDDB1336750C7ACF Accuracy: -m0
  Conclusion: CDDA 100%
  Signature: B530C9A40992A3626CF9ADA65397316ABF12673E
FILE: 09. The Will You Always Had.flac
  Size: 24728369 Hash: 3416B1F176413D42074BC547818BED92 Accuracy: -m0
  Conclusion: CDDA 100%
  Signature: B72A4F8B93FE4647F32F9FE028F12C0DEC4216BA
FILE: 08. The Final Incantation.flac
  Size: 39640516 Hash: 24591117057D76DEC780515293184B43 Accuracy: -m0
  Conclusion: CDDA 100%
  Signature: 740F3D2451D0CB9F065A9292C0CD2084CD33AF25
FILE: 07. One Among the Crowd.flac
  Size: 28949025 Hash: 2C722DC9B16B9F0DA4A0100343C00147 Accuracy: -m0
  Conclusion: CDDA 99%
  Signature: 5F6EF493064ED67966D5E14C3FBB465A8A063E59
FILE: 06. Rock’n'Roll.flac
  Size: 27767515 Hash: 2CDBA7938E8D414B4C2F7D34F2934C90 Accuracy: -m0
  Conclusion: CDDA 100%
  Signature: ED861D0A8C91E29279C347A9628AED54102E19C4
FILE: 05. Still Metal.flac
  Size: 31501405 Hash: 13F9E28D5B10FAE64DE2BA0065BC2718 Accuracy: -m0
  Conclusion: CDDA 100%
  Signature: 1795AA346F1F9E8A902E5F64C383EACFA0F0A283
FILE: 04. On the Run.flac
  Size: 25458384 Hash: E12DC216B7568371579D305BB50B94FC Accuracy: -m0
  Conclusion: CDDA 100%
  Signature: C07033597C55CC4DADE1F8E66CCED0AE0FFE2522
FILE: 03. Tug of War.flac
  Size: 28730423 Hash: C560F8BF0E78944601486D6EE0943637 Accuracy: -m0
  Conclusion: CDDA 100%
  Signature: AF036D73FEB97DE3840FAA3543905AC31078B73F
FILE: 02. Road of Creation.flac
  Size: 39318370 Hash: 53210E5B03CBDE86AEF85D5A43D06636 Accuracy: -m0
  Conclusion: CDDA 100%
  Signature: DC55E20F8D42E3DEFC73F93610349D0396966776
FILE: 01. The End of the Line.flac
  Size: 32876369 Hash: C517C34158A228753246C88661F8DB9F Accuracy: -m0
  Conclusion: CDDA 100%
  Signature: 95231ACC01FDD52807240337370BBC61B5E61B0F

Детали торрента:
Название:Ahola - Tug Of War (2014) [FLAC|Lossless]<Hard-Rock>
Дата добавления:06 Май 2014 19:05:13
Размер:362 MB
Раздают:1
Качают:0
Форум:Hard Rock (Lossless)

All rights reserved © 2015-2019