TORRENTS45.XYZ

Скачать Комиссар - Сказка о любви Яхт-Клуб "Адмирал" (2011) DVD5х2


Комиссар - Сказка о любви Яхт-Клуб "Адмирал" (2011) DVD5х2
Год выпуска: 2011
Жанр: Музыкальный, концерт
Лейбл: Admiral-Disco

Описание фильма:
Свадьба Алексея Щукина и Анастасии в Яхт-клубе "Адмирал" (2011 г.)
Диск предоставлен Диско-клубом "Адмирал". Диски распространялись на годовщине свадьбы Алексея Щукина.


Треклист:
ДИСК 1
01. Мишель - Свадьба
02. Мишель - Белые кораблики
03. Мишель - Плакать не стану
04. Александр Айвазов - Бабочка-Луна
05. Александр Айвазов - А по тёмным улицам гуляет дождь
06. Александр Айвазов - Лилии
07. Е. Болдышева и А. Горбашов (Мираж-90) - Звёзды
08. Е. Болдышева и А. Горбашов (Мираж-90) - Звёздная россыпь
09. Е. Болдышева и А. Горбашов (Мираж-90) - Ветер за спиной
10. Выход молодожёнов
11. Сергей Чумаков и Мишель - Не обижай жених
12. Сергей Чумаков - Осень
13. Сергей Чумаков - Не ври
14. 140 ударов в минуту - Тополя
15. 140 ударов в минуту - Без тебя
16. Размер Project - Ю-А-Ю
17. Размер Project - Ангел дня
18. Шоколад-Виктори - Раб любви
19. Шоколад-Виктори - Алло, Алёнка!
20. Оксана Ковалевская - Те, кто любят
21. Арамис - Девочка ждёт

продолжение

22. Арамис - Тимофей
23. МГК - Скорый поезд
24. МГК - Ещё раз про любовь
25. Комиссар - Ты уйдёшь
26. Комиссар - Дрянь
27. Комиссар - Королева снежная
ДИСК 2
28. Комиссар - Туман-Туманище
29. Комиссар - Любовь это Яд
30. Комиссар - Инструментал (Танец молодых)
31. Игорёк - Автосервис
32. Игорёк - Кричи, кричи!
33. Игорёк feat. Энди - Грачи
34. Доктор Рок - Hit The Road Jack
35. Планеты - Всем привет из 90-х
36. Планеты - Любовь
37. Шан-Хай - Солнечный зайчик
38. Шан-Хай - Али-Баба
39. H2O (ex. TURBOMODA) - Турболюбовь
40. H2O (ex. TURBOMODA) - Вторая половина
41. Всегда - Снежинки
42. Всегда - Колючки
43. Хамелеон - Дорожная
44. Хамелеон - 12-85-00
Продолжительность: 01:54:44 + 01:14:32
Качество видео: DVD5

Видеокодек: MPEG-2
Битрейт видео: ~4770 kbps avg, 0.460 bit/pixel
Размер кадра: 720х576@1024x576 (16:9), 25.00 fps
Аудиокодек: MPEG Audio, 2 ch
Битрейт аудио: 320.00 kbps avg, 48 kHz
Доп. информация: Бонусы: нет
Меню: есть, анимированное, озвученное
Разбивка на главы по трекам: есть

MediaInfo

Код:
Общее
Полное имя                               : Комиссар - Сказка о любви (2xDVD5)\Disc 1\VIDEO_TS\VTS_01_1.VOB
Формат                                   : MPEG-PS
Размер файла                             : 1024 Мбайт
Продолжительность                        : 27 м.
Режим общего битрейта                    : Переменный
Общий поток                              : 5194 Кбит/сек
Библиотека кодирования                   : Authoring Works 4 Version. 4.0.7.32

Видео
Идентификатор                            : 224 (0xE0)
Формат                                   : MPEG Video
Версия формата                           : Version 2
Профиль формата                          : Main@Main
Параметр BVOP формата                    : Да
Параметр матрицы формата                 : Выборочная
Параметр GOP формата                     : Variable
Продолжительность                        : 27 м.
Вид битрейта                             : Переменный
Битрейт                                  : 4770 Кбит/сек
Максимальный битрейт                     : 9000 Кбит/сек
Ширина                                   : 720 пикселей
Высота                                   : 576 пикселей
Соотношение сторон                       : 16:9
Частота кадров                           : 25,000 кадров/сек
Стандарт вещания                         : PAL
Цветовое пространство                    : YUV
Субдискретизация насыщенности            : 4:2:0
Битовая глубина                          : 8 бит
Тип развёртки                            : Прогрессивная
Метод сжатия                             : С потерями
Бит/(Пиксели*Кадры)                      : 0.460
Размер потока                            : 940 Мбайт (92%)
Выравнивание                             : encoded by TMPGEnc Authoring Works 4 Version. 4.0.7.32
Заголовок                                : TMPGEnc
Программа кодирования                    : Authoring Works 4 Version. 4.0.7.32
Библиотека кодирования                   : TMPGEnc Authoring Works 4 Version. 4.0.7.32
Основные цвета                           : BT.601 PAL
Характеристики трансфера                 : BT.470 System B, BT.470 System G
Коэффициенты матрицы                     : BT.601

Аудио
Идентификатор                            : 192 (0xC0)
Формат                                   : MPEG Audio
Версия формата                           : Version 1
Профиль формата                          : Layer 2
Продолжительность                        : 27 м.
Вид битрейта                             : Постоянный
Битрейт                                  : 320 Кбит/сек
Каналы                                   : 2 канала
Частота                                  : 48,0 КГц
Метод сжатия                             : С потерями
Размер потока                            : 63,1 Мбайт (6%)

Меню

DVDInfo

Код:
Title: Disc 1
Size: 4.27 Gb ( 4 476 180,00 KBytes ) - DVD-5
Enabled regions: 1, 2, 3, 4, 5, 6, 7, 8

VTS_01 :
  Play Length: 01:54:44
  Video: PAL 16:9 (720x576) VBR, Auto Letterboxed
  Audio:
      Not specified (MPEG1, 2 ch)

* Menus Information *

VIDEO_TS Menu
Video:
      PAL 16:9 (720x576) VBR
      Auto Letterboxed
Audio:
      Not specified (Dolby AC3, 2 ch)
Language Unit :
      Title Menu

VTS_01 Menu
Video:
      PAL 16:9 (720x576) VBR
      Auto Letterboxed
Language Unit :
      Root Menu

Скриншоты меню

Скриншоты:


Детали торрента:
Название:Комиссар - Сказка о любви Яхт-Клуб "Адмирал" (2011) DVD5х2
Дата добавления:26 Мар 2014 10:10:51
Размер:7,65 GB
Раздают:
Качают:0
Форум:Концерты (DVD)

All rights reserved © 2015-2018