TORRENTS45.XYZ

Скачать Free Spirit - All The Shades Of Darkened Light (2014) [FLAC|Lossless]<Melodic Hard Rock>


Free Spirit - All The Shades Of Darkened Light (2014)
Год: 2014
Жанр: Melodic Hard Rock
Издатель (лейбл): Carpel Music
Номер по каталогу #: CMCCD-1301
Наличие сканов в содержимом раздачи: да
Продолжительность: 00:44:10

Кодек: FLAC
Битрейт: Lossless
Тип рипа: image+.cue

Треклист:
01. Night Of Paradise (3:15)
02. Living Tatoo (4:05)
03. Hysteria (3:30)
04. Ever Came True (4:03)
05. The Dew Of The Rose (3:43)
06. Turn On The Night (4:46)
07. Burning Love (4:01)
08. Carry On (4:16)
09. Fever (3:43)
10. Silence (4:47)
11. Storyline (4:01)

Отчёт ЕАС:

Код:

Exact Audio Copy V1.0 beta 3 from 29. August 2011

EAC extraction logfile from 20. March 2014, 22:50

Free Spirit / All The Shades Of Darkened Light

Used drive  : SlimtypeDVD A  DS8A5SH   Adapter: 0  ID: 1

Read mode               : Secure
Utilize accurate stream : Yes
Defeat audio cache      : Yes
Make use of C2 pointers : No

Read offset correction                      : 6
Overread into Lead-In and Lead-Out          : No
Fill up missing offset samples with silence : Yes
Delete leading and trailing silent blocks   : No
Null samples used in CRC calculations       : Yes
Used interface                              : Native Win32 interface for Win NT & 2000

Used output format              : User Defined Encoder
Selected bitrate                : 320 kBit/s
Quality                         : High
Add ID3 tag                     : No
Command line compressor         : C:\Program Files (x86)\Exact Audio Copy\Flac\flac.exe
Additional command line options : -V -8 -T "Date=%year%" -T "Genre=%genre%" %source%

TOC of the extracted CD

     Track |   Start  |  Length  | Start sector | End sector
    ---------------------------------------------------------
        1  |  0:00.00 |  3:15.15 |         0    |    14639
        2  |  3:15.15 |  4:05.21 |     14640    |    33035
        3  |  7:20.36 |  3:30.18 |     33036    |    48803
        4  | 10:50.54 |  4:03.27 |     48804    |    67055
        5  | 14:54.06 |  3:42.51 |     67056    |    83756
        6  | 18:36.57 |  4:45.52 |     83757    |   105183
        7  | 23:22.34 |  4:01.36 |    105184    |   123294
        8  | 27:23.70 |  4:15.45 |    123295    |   142464
        9  | 31:39.40 |  3:43.11 |    142465    |   159200
       10  | 35:22.51 |  4:47.17 |    159201    |   180742
       11  | 40:09.68 |  4:00.60 |    180743    |   198802

Range status and errors

Selected range

     Filename D:\My Music\Free Spirit - 2014 All The Shades Of Darkened Light\Free Spirit - All The Shades Of Darkened Light.wav

     Peak level 100.0 %
     Extraction speed 1.7 X
     Range quality 99.9 %
     Test CRC 24B7826E
     Copy CRC 24B7826E
     Copy OK

No errors occurred

AccurateRip summary

Track  1  not present in database
Track  2  not present in database
Track  3  not present in database
Track  4  not present in database
Track  5  not present in database
Track  6  not present in database
Track  7  not present in database
Track  8  not present in database
Track  9  not present in database
Track 10  not present in database
Track 11  not present in database

None of the tracks are present in the AccurateRip database

End of status report

==== Log checksum 811C87220DBE8B95DF5E4E5EFBAA44A977D77FFE5E8AE5D461EFFCC8511A47FC ====

Отчёт auCDtect Task manager:

Код:

-----------------------

DON'T MODIFY THIS FILE

-----------------------

PERFORMER: auCDtect Task Manager, ver. 1.6.0 RC1 build 1.6.0.1
Copyright (c) 2008-2010 y-soft. All rights reserved
http://y-soft.org

ANALYZER: auCDtect: CD records authenticity detector, version 0.8.2
Copyright (c) 2004 Oleg Berngardt. All rights reserved.
Copyright (c) 2004 Alexander Djourik. All rights reserved.

FILE: Free Spirit - All The Shades Of Darkened Light.flac
  Size: 336991759 Hash: 66341B22BCEA0B37940FA9848FF73224 Accuracy: -m0
  Conclusion: CDDA 100%
  Signature: 0B7C31F567B31F99E5EAD92593E2EB5A39BBD7EB

Содержание индексной карты (.CUE):

Код:
REM GENRE "Melodic Hard Rock"
REM DATE 2014
REM DISCID 810A5A0B
REM COMMENT "ExactAudioCopy v1.0b3"
PERFORMER "Free Spirit"
TITLE "All The Shades Of Darkened Light"
FILE "Free Spirit - All The Shades Of Darkened Light.flac" WAVE
  TRACK 01 AUDIO
    TITLE "Night Of Paradise"
    PERFORMER "Free Spirit"
    ISRC FICMC1300001
    INDEX 01 00:00:00
  TRACK 02 AUDIO
    TITLE "Living Tatoo"
    PERFORMER "Free Spirit"
    ISRC FICMC1300002
    INDEX 01 03:15:15
  TRACK 03 AUDIO
    TITLE "Hysteria"
    PERFORMER "Free Spirit"
    ISRC FICMC1300003
    INDEX 01 07:20:36
  TRACK 04 AUDIO
    TITLE "Ever Came True"
    PERFORMER "Free Spirit"
    ISRC FICMC1300004
    INDEX 01 10:50:54
  TRACK 05 AUDIO
    TITLE "The Dew Of The Rose"
    PERFORMER "Free Spirit"
    ISRC FICMC1300005
    INDEX 01 14:54:06
  TRACK 06 AUDIO
    TITLE "Turn On The Night"
    PERFORMER "Free Spirit"
    ISRC FICMC1300006
    INDEX 01 18:36:57
  TRACK 07 AUDIO
    TITLE "Burning Love"
    PERFORMER "Free Spirit"
    ISRC FICMC1300007
    INDEX 01 23:22:34
  TRACK 08 AUDIO
    TITLE "Carry On"
    PERFORMER "Free Spirit"
    ISRC FICMC1300008
    INDEX 01 27:23:70
  TRACK 09 AUDIO
    TITLE "Fever"
    PERFORMER "Free Spirit"
    ISRC FICMC1300009
    INDEX 01 31:39:40
  TRACK 10 AUDIO
    TITLE "Silence"
    PERFORMER "Free Spirit"
    ISRC FICMC1300010
    INDEX 01 35:22:51
  TRACK 11 AUDIO
    TITLE "Storyline"
    PERFORMER "Free Spirit"
    ISRC FICMC1300011
    INDEX 01 40:09:68

Детали торрента:
Название:Free Spirit - All The Shades Of Darkened Light (2014) [FLAC|Lossless]<Melodic Hard Rock>
Дата добавления:22 Мар 2014 12:30:12
Размер:365 MB
Раздают:1
Качают:1
Форум:Hard Rock (Lossless)

All rights reserved © 2015-2019