TORRENTS45.XYZ

Скачать Королева варваров / Barbarian Queen (1985) DVDRip


Королева варваров / Barbarian Queen (1985) DVDRip
Год выпуска: 1985
Жанр: Боевик, Приключения, Фэнтези

Описание фильма:
В день свадьбы гордого и неустрашимого принца Аргана и прекрасной Королевы Варваров Аматеи на ее страну напали кровожадные воины лорда Арракура. Безжалостные захватчики уничтожали все на своем пути, а женщин и мужчин угоняли в рабство. Аметея и Арган мужественно сражались плечом к плечу, но силы оказались слишком неравными. Принц Арган был захвачен в плен, и спастись удалось лишь Аметее и трем ее подругам. Вооруженные мечами и неугасимой жаждой мщения, они отправляются в полный опасностей и приключений путь, чтобы жестоко покарать коварного лорда Арракура.
Режиссер: Эктор Оливера
Актеры: Лана Кларксон, Кэтт Ши, Фрэнк Загарино, Доун Данлэп, Сусана Траверсо, Виктор Бо, Арман Чэпман, Андреа Барбьери, Тони Миддлтон, Андреа Скривен

Продолжительность: 01:11:46
Качество видео: DVDRip
Перевод: Двуголосый закадровый



Дата мировой премьеры: 10.10.1986

Видеокодек: Xvid
Битрейт видео: ~1250 Кбит/с
Размер кадра: 688x384
Аудиокодек: AC3
Битрейт аудио: 192 Кбит/с,2ch
Сэмпл:

MI:

Общее
Полное имя : D:\Архив\Фильмы\Королева варваров (Barbarian Queen) (1985).avi
Формат : AVI
Формат/Информация : Audio Video Interleave
Размер файла : 745 Мбайт
Продолжительность : 1 ч. 11 м.
Общий поток : 1451 Кбит/сек
Программа кодирования : VirtualDubMod 1.5.10.3 | www.virtualdub-fr.org || (build 2550/release)
Библиотека кодирования : VirtualDubMod build 2550/release

Видео
Идентификатор : 0
Формат : MPEG-4 Visual
Профиль формата : Advanced Simple@L5
Параметр BVOP формата : 1
Параметр QPel формата : Нет
Параметр GMC формата : Без точки перехода
Параметр матрицы формата : Выборочная
Идентификатор кодека : XVID
Идентификатор кодека/Подсказка : XviD
Продолжительность : 1 ч. 11 м.
Битрейт : 1250 Кбит/сек
Ширина : 688 пикселей
Высота : 384 пикселя
Соотношение сторон : 16:9
Частота кадров : 23,976 кадра/сек
Цветовое пространство : YUV
Субдискретизация насыщенности : 4:2:0
Битовая глубина : 8 бит
Тип развёртки : Прогрессивная
Метод сжатия : С потерями
Бит/(Пиксели*Кадры) : 0.197
Размер потока : 641 Мбайт (86%)
Библиотека кодирования : XviD 64

Аудио
Идентификатор : 1
Формат : AC-3
Формат/Информация : Audio Coding 3
Расширение режима : CM (complete main)
Параметр Endianness формата : Big
Идентификатор кодека : 2000
Продолжительность : 1 ч. 11 м.
Вид битрейта : Постоянный
Битрейт : 192 Кбит/сек
Каналы : 2 канала
Расположение каналов : Front: L R
Частота : 48,0 КГц
Битовая глубина : 16 бит
Метод сжатия : С потерями
Размер потока : 98,5 Мбайт (13%)
Выравнивание : Разделение по промежуткам
Продолжительность промежутка : 42 мс. (1,00 видеокадр)
Время предзагрузки промежутка : 500 мс.
Скриншоты:



Детали торрента:
Название:Королева варваров / Barbarian Queen (1985) DVDRip
Дата добавления:10 Мар 2014 12:47:51
Размер:745 MB
Раздают:
Качают:0
Форум:Грайндхаус

All rights reserved © 2015-2018