TORRENTS45.XYZ

Скачать Вадим Байков - День за днём (2012) [FLAC|Lossless]<PopMusic>


Вадим Байков - День за днём (2012)
Год: 2012
Страна-производитель диска: Россия
Издатель (лейбл): Квадро-Диск
Номер по каталогу: KTL 12-935
Жанр: PopMusic
Продолжительность: 01:00:54

Кодек: FLAC
Битрейт: Lossless
Тип рипа: image+.cue

Треклист:
01. Интродукция (0:44)
02. Половина (5:47)
03. Всё сначала (4:24)
04. Облака (3:43)
05. День за днём (4:03)
06. Сынок (3:19)
07. Будь со мной (4:06)
08. Прости-прощай (4:37)
09. Доброе утро (3:29)
10. Помни меня (4:07)
11. 40 (3:42)
12. 10 минут (4:36)
13. Одиночество (5:44)
14. Помолись за меня (3:50)
15. Половина [Radio Edit] (4:41)

Отчёт ЕАС:

Код:

Exact Audio Copy V1.0 beta 3 from 29. August 2011

Отчёт EAC об извлечении, выполненном 25. января 2014, 15:06

Вадим Байков / День за днём

Дисковод: ASUS    DRW-1814BLT   Adapter: 1  ID: 1

Режим чтения                 : Достоверность
Использование точного потока : Да
Отключение кэша аудио        : Да
Использование указателей C2  : Нет

Коррекция смещения при чтении                     : 6
Способность читать области Lead-in и Lead-out     : Нет
Заполнение пропущенных сэмплов тишиной            : Да
Удаление блоков с тишиной в начале и конце        : Нет
При вычислениях CRC использовались нулевые сэмплы : Да
Интерфейс                                         : Встроенный Win32-интерфейс для Win NT/2000

Выходной формат : Внутренние WAV-операции
Формат сэмплов  : 44.100 Гц; 16 бит; стерео

TOC извлечённого CD

     Трек |   Старт  | Длительность | Начальный сектор | Конечный сектор
    ---------------------------------------------------------------------
       1  |  0:00.00 |    0:44.30   |           0      |       3329
       2  |  0:44.30 |    5:47.02   |        3330      |      29356
       3  |  6:31.32 |    4:24.29   |       29357      |      49185
       4  | 10:55.61 |    3:43.34   |       49186      |      65944
       5  | 14:39.20 |    4:03.20   |       65945      |      84189
       6  | 18:42.40 |    3:18.63   |       84190      |      99102
       7  | 22:01.28 |    4:06.34   |       99103      |     117586
       8  | 26:07.62 |    4:37.04   |      117587      |     138365
       9  | 30:44.66 |    3:29.37   |      138366      |     154077
      10  | 34:14.28 |    4:06.42   |      154078      |     172569
      11  | 38:20.70 |    3:42.10   |      172570      |     189229
      12  | 42:03.05 |    4:36.18   |      189230      |     209947
      13  | 46:39.23 |    5:43.47   |      209948      |     235719
      14  | 52:22.70 |    3:49.72   |      235720      |     252966
      15  | 56:12.67 |    4:41.32   |      252967      |     274073

Характеристики диапазона извлечения и сообщения об ошибках

Выбранный диапазон

     Имя файла Вадим Байков - День за днём (2012)\Вадим Байков - День за днём.wav

     Пиковый уровень 99.0 %
     Скорость извлечения 2.4 X
     Качество диапазона 99.9 %
     CRC теста A389049A
     CRC копии A389049A
     Копирование... OK

Ошибок не произошло

AccurateRip: сводка

Трек  1  отсутствует в базе данных
Трек  2  отсутствует в базе данных
Трек  3  отсутствует в базе данных
Трек  4  отсутствует в базе данных
Трек  5  отсутствует в базе данных
Трек  6  отсутствует в базе данных
Трек  7  отсутствует в базе данных
Трек  8  отсутствует в базе данных
Трек  9  отсутствует в базе данных
Трек 10  отсутствует в базе данных
Трек 11  отсутствует в базе данных
Трек 12  отсутствует в базе данных
Трек 13  отсутствует в базе данных
Трек 14  отсутствует в базе данных
Трек 15  отсутствует в базе данных

Ни одного трека нет в базе AccurateRip

Конец отчёта

==== Контрольная сумма отчёта 65A2BBC710E17658B20B84BBCD013BA46526E27DBA2965D4ED479499C2DAB5D6 ====

Отчёт auCDtect Task manager:

Код:

-----------------------

DON'T MODIFY THIS FILE

-----------------------

PERFORMER: auCDtect Task Manager, ver. 1.5.1RC6 build 1.5.1.7
Copyright (c) 2008-2010 y-soft. All rights reserved
http://y-soft.org

ANALYZER: auCDtect: CD records authenticity detector, version 0.8.2
Copyright (c) 2004 Oleg Berngardt. All rights reserved.
Copyright (c) 2004 Alexander Djourik. All rights reserved.

FILE: Вадим Байков - День за днём.flac
  Size: 462264546 Hash: E9F60220C342EC30093EFF5473B98F67 Accuracy: -m0
  Conclusion: CDDA 99%
  Signature: 9355B0F6C28A12051F064503341CC8C67CC8F1B6

Спектрограмма:

YouTube

Детали торрента:
Название:Вадим Байков - День за днём (2012) [FLAC|Lossless]<PopMusic>
Дата добавления:04 Мар 2014 13:46:55
Размер:468 MB
Раздают:
Качают:0
Форум:Отечественная поп-музыка (Lossless)

All rights reserved © 2015-2019