TORRENTS45.XYZ

Скачать House Of Lords - Precious Metal (2014) [FLAC|Lossless]<Hard Rock>


House Of Lords - Precious Metal (2014)
Год: 2014
Жанр: Hard Rock
Продолжительность: 00:50:33
Страна: USA
Кодек: FLAC
Тип рипа: image+.cue
Битрейт: Lossless
Источник: RD
Треклист:

01 Battle [05:07]
02 I'm Breakin Free [03:22]
03 Epic [04:23]
04 Live Every Day (Like It's The Last) [04:16]
05 Permission To Die [04:27]
06 Precious Metal [04:41]
07 Swimmin With The Sharks [04:09]
08 Raw [03:56]
09 Enemy Mine [03:41]
10 Action [03:35]
11 Turn Back The Tide [04:48]
12 You Might Just Save My Life [03:38]

Отчёт ЕАС:

Код:

Exact Audio Copy V1.0 beta 3 from 29. August 2011

EAC extraction logfile from 1. March 2014, 16:20

House Of Lords / Precious Metal

Used drive  : PLEXTOR DVDR   PX-860A   Adapter: 0  ID: 4

Read mode               : Secure
Utilize accurate stream : Yes
Defeat audio cache      : Yes
Make use of C2 pointers : No

Read offset correction                      : 96
Overread into Lead-In and Lead-Out          : No
Fill up missing offset samples with silence : Yes
Delete leading and trailing silent blocks   : No
Null samples used in CRC calculations       : Yes
Used interface                              : Installed external ASPI interface

Used output format              : User Defined Encoder
Selected bitrate                : 1024 kBit/s
Quality                         : High
Add ID3 tag                     : Yes
Command line compressor         : E:\Program Files (x86)\Exact Audio Copy\Flac\flac.exe
Additional command line options : -V -8 -T "Date=%year%" -T "Genre=%genre%" %source%

TOC of the extracted CD

     Track |   Start  |  Length  | Start sector | End sector
    ---------------------------------------------------------
        1  |  0:00.00 |  5:10.23 |         0    |    23272
        2  |  5:10.23 |  3:22.56 |     23273    |    38478
        3  |  8:33.04 |  4:26.51 |     38479    |    58479
        4  | 12:59.55 |  4:18.30 |     58480    |    77859
        5  | 17:18.10 |  4:29.23 |     77860    |    98057
        6  | 21:47.33 |  4:43.06 |     98058    |   119288
        7  | 26:30.39 |  4:11.56 |    119289    |   138169
        8  | 30:42.20 |  3:57.39 |    138170    |   155983
        9  | 34:39.59 |  3:44.15 |    155984    |   172798
       10  | 38:23.74 |  3:38.19 |    172799    |   189167
       11  | 42:02.18 |  4:50.55 |    189168    |   210972
       12  | 46:52.73 |  3:40.07 |    210973    |   227479

Range status and errors

Selected range

     Filename D:\MUSIC\House Of Lords - Precious Metal.wav

     Peak level 100.0 %
     Extraction speed 7.6 X
     Range quality 100.0 %
     Test CRC 2F0168E1
     Copy CRC 2F0168E1
     Copy OK

No errors occurred

AccurateRip summary

Track  1  not present in database
Track  2  not present in database
Track  3  not present in database
Track  4  not present in database
Track  5  not present in database
Track  6  not present in database
Track  7  not present in database
Track  8  not present in database
Track  9  not present in database
Track 10  not present in database
Track 11  not present in database
Track 12  not present in database

None of the tracks are present in the AccurateRip database

End of status report

==== Log checksum A0E0208F1B5D6C8807E41DEC2910129CEDA22DF1B78A4A9FEC4FF8CF9D61CEB2 ====

Отчёт auCDtect Task manager:

Код:

-----------------------

DON'T MODIFY THIS FILE

-----------------------

PERFORMER: auCDtect Task Manager, ver. 1.6.0 RC1 build 1.6.0.1
Copyright (c) 2008-2010 y-soft. All rights reserved
http://y-soft.org

ANALYZER: auCDtect: CD records authenticity detector, version 0.8.2
Copyright (c) 2004 Oleg Berngardt. All rights reserved.
Copyright (c) 2004 Alexander Djourik. All rights reserved.

FILE: House Of Lords - Precious Metal.flac
  Size: 389835052 Hash: 6148119B97D503FDC740F3374B309FA8 Accuracy: -m0
  Conclusion: CDDA 100%
  Signature: 0594EDD1530F40344763F99056B46831B54996FA


Детали торрента:
Название:House Of Lords - Precious Metal (2014) [FLAC|Lossless]<Hard Rock>
Дата добавления:03 Мар 2014 07:18:22
Размер:384 MB
Раздают:1
Качают:0
Форум:Hard Rock (Lossless)

All rights reserved © 2015-2019