TORRENTS45.XYZ

Скачать Poison - Flesh & Blood (1990) Japan [APE|Lossless]<Hard Rock / Glam>


Poison - Flesh & Blood (1990) Japan
Год: 1990
Жанр: Hard Rock / Glam
Label & Catalog#: CBS-SONY Records - CSCS 5229
Продолжительность: 00:57:46

Кодек: APE [img+cue]
Битрейт: Lossless

Треклист:
01. Strange Days Of Uncle Jack [01:39]
02. Valley Of Lost Souls [03:58]
03. (Flesh & Blood) Sacrifice [04:40]
04. Swampjuice (Soul-O) [01:26]
05. Unskinny Bop [03:48]
06. Let It Play [04:21]
07. Life Goes On [04:47]
08. Come Hell Or High Water [05:02]
09. Ride The Wind [03:51]
10. Don't Give Up An Inch [03:43]
11. Something To Believe In [05:28]
12. Ball And Chain [04:23]
13. Life Loves A Tragedy [05:14]
14. Poor Boy Blues [05:21]

cue:

Код:
REM GENRE Rock
REM DATE 1990
REM DISCID B00D8A0E
REM COMMENT "ExactAudioCopy v0.99pb4"
PERFORMER "Poison"
TITLE "Flesh & Blood"
FILE "Poison - Flesh & Blood.ape" WAVE
  TRACK 01 AUDIO
    TITLE "Strange Days Of Uncle Jack"
    PERFORMER "Poison"
    INDEX 01 00:00:00
  TRACK 02 AUDIO
    TITLE "Valley Of Lost Souls"
    PERFORMER "Poison"
    INDEX 01 01:39:70
  TRACK 03 AUDIO
    TITLE "(Flesh & Blood) Sacrifice"
    PERFORMER "Poison"
    INDEX 01 05:38:15
  TRACK 04 AUDIO
    TITLE "Swampjuice (Soul-O)"
    PERFORMER "Poison"
    INDEX 01 10:18:60
  TRACK 05 AUDIO
    TITLE "Unskinny Bop"
    PERFORMER "Poison"
    INDEX 01 11:44:60
  TRACK 06 AUDIO
    TITLE "Let It Play"
    PERFORMER "Poison"
    INDEX 01 15:32:67
  TRACK 07 AUDIO
    TITLE "Life Goes On"
    PERFORMER "Poison"
    INDEX 01 19:54:62
  TRACK 08 AUDIO
    TITLE "Come Hell Or High Water"
    PERFORMER "Poison"
    INDEX 01 24:42:22
  TRACK 09 AUDIO
    TITLE "Ride The Wind"
    PERFORMER "Poison"
    INDEX 01 29:44:32
  TRACK 10 AUDIO
    TITLE "Don't Give Up An Inch"
    PERFORMER "Poison"
    INDEX 01 33:36:02
  TRACK 11 AUDIO
    TITLE "Something To Believe In"
    PERFORMER "Poison"
    INDEX 01 37:19:37
  TRACK 12 AUDIO
    TITLE "Ball And Chain"
    PERFORMER "Poison"
    INDEX 01 42:47:62
  TRACK 13 AUDIO
    TITLE "Life Loves A Tragedy"
    PERFORMER "Poison"
    INDEX 01 47:10:65
  TRACK 14 AUDIO
    TITLE "Poor Boy Blues"
    PERFORMER "Poison"
    INDEX 01 52:25:27

Отчёт ЕАС:

Код:

Exact Audio Copy V0.99 prebeta 4 from 23. January 2008

Отчёт EAC об извлечении, выполненном 27. июля 2009, 16:12

Poison / Flesh & Blood

Дисковод: PIONEER DVD-RW  DVR-216D   Adapter: 2  ID: 1

Режим чтения                 : Достоверность
Использование точного потока : Да
Отключение кэша аудио        : Да
Использование указателей C2  : Нет

Коррекция смещения при чтении                     : 96
Способность читать области Lead-in и Lead-out     : Нет
Заполнение пропущенных сэмплов тишиной            : Да
Удаление блоков с тишиной в начале и конце        : Нет
При вычислениях CRC использовались нулевые сэмплы : Да
Интерфейс                                         : Установленный внешний ASPI-интерфейс

Выходной формат : Monkey's Audio Lossless Encoder v3.99 DLL
Формат сэмплов  : Fast Lossless Compression

TOC извлечённого CD

     Трек |   Старт  | Длительность | Начальный сектор | Конечный сектор
    ---------------------------------------------------------------------
       1  |  0:00.00 |    1:39.70   |           0      |       7494
       2  |  1:39.70 |    3:58.20   |        7495      |      25364
       3  |  5:38.15 |    4:40.45   |       25365      |      46409
       4  | 10:18.60 |    1:26.00   |       46410      |      52859
       5  | 11:44.60 |    3:48.07   |       52860      |      69966
       6  | 15:32.67 |    4:21.70   |       69967      |      89611
       7  | 19:54.62 |    4:47.35   |       89612      |     111171
       8  | 24:42.22 |    5:02.10   |      111172      |     133831
       9  | 29:44.32 |    3:51.45   |      133832      |     151201
      10  | 33:36.02 |    3:43.35   |      151202      |     167961
      11  | 37:19.37 |    5:28.25   |      167962      |     192586
      12  | 42:47.62 |    4:23.03   |      192587      |     212314
      13  | 47:10.65 |    5:14.37   |      212315      |     235901
      14  | 52:25.27 |    5:21.00   |      235902      |     259976

Характеристики диапазона извлечения и сообщения об ошибках

Выбранный диапазон

     Имя файла D:\Disk F\Захар 2\Poison\Flesh & Blood 1990 (CSCS 5229, CBS-SONY Records, Japan)\Poison - Flesh & Blood.ape

     Пиковый уровень 100.0 %
     Качество диапазона 100.0 %
     CRC копии C1882267
     Копирование... OK

Ошибок не произошло

AccurateRip: сводка

Трек  1  нет в базе данных
Трек  2  нет в базе данных
Трек  3  нет в базе данных
Трек  4  нет в базе данных
Трек  5  нет в базе данных
Трек  6  нет в базе данных
Трек  7  нет в базе данных
Трек  8  нет в базе данных
Трек  9  нет в базе данных
Трек 10  нет в базе данных
Трек 11  нет в базе данных
Трек 12  нет в базе данных
Трек 13  нет в базе данных
Трек 14  нет в базе данных

Ни одного трека нет в базе AccurateRip

Конец отчёта

Отчёт auCDtect Task manager:

Код:

-----------------------

DON'T MODIFY THIS FILE

-----------------------

PERFORMER: auCDtect Task Manager, ver. 1.6.0 RC1 build 1.6.0.1
Copyright (c) 2008-2010 y-soft. All rights reserved
http://y-soft.org

ANALYZER: auCDtect: CD records authenticity detector, version 0.8.2
Copyright (c) 2004 Oleg Berngardt. All rights reserved.
Copyright (c) 2004 Alexander Djourik. All rights reserved.

FILE: Poison - Flesh & Blood.ape
  Size: 411752735 Hash: 5A60A1D69A4109274EA0CD83881E10B0 Accuracy: -m0
  Conclusion: CDDA 100%
  Signature: A95F7B3022B3F83FE79CFB2BC529579B74E29BB1

Спектрограмма:

Thanks Manstr

Детали торрента:
Название:Poison - Flesh & Blood (1990) Japan [APE|Lossless]<Hard Rock / Glam>
Дата добавления:01 Мар 2014 19:48:29
Размер:445 MB
Раздают:1
Качают:0
Форум:Hard Rock (Lossless)

All rights reserved © 2015-2019