TORRENTS45.XYZ

Скачать Михаил Задорнов. Новогодний задорный юбилей (2 часть) (2013.12.31) SATRip


Михаил Задорнов. Новогодний задорный юбилей (2 часть) (2013.12.31) SATRip
Русское название: Михаил Задорнов
Режиссер / Телекомпания: СТС
Год выпуска: 2013
Жанр: Юмористический концерт, сатира

Описание:
Пожалуй, представлять Вам этого человека не нужно, так как все знают сценический образ Михаила Задорнова. Его ирония над смешными жизненными ситуациями, а так же тонко подмеченные интересные случаи с жизни делают его по истине уникальным сатириком. На вечера с Задорновым собираются всегда полные залы народа.

Режиссёр: Михаил Задорнов

Продолжительность: 01:35:45

Видеокодек: XviD
Битрейт видео: 1801 kb/s
Размер кадра: 720x400
Качество видео: SATRip
Аудиокодек: MP3, 2 ch
Битрейт аудио: 192 kb/s

MI

Общее
Полное имя : D:\Михаил Задорнов. Новогодний задорный юбилей (2 часть) (2013.12.31).avi
Формат : AVI
Формат/Информация : Audio Video Interleave
Размер файла : 1,34 Гбайт
Продолжительность : 1 ч. 35 м.
Общий поток : 2002 Кбит/сек
Библиотека кодирования : VirtualDub build 32706/release

Видео
Идентификатор : 0
Формат : MPEG-4 Visual
Профиль формата : Advanced Simple@L5
Параметр BVOP формата : 2
Параметр QPel формата : Нет
Параметр GMC формата : Без точки перехода
Параметр матрицы формата : Default (MPEG)
Идентификатор кодека : XVID
Идентификатор кодека/Подсказка : XviD
Продолжительность : 1 ч. 35 м.
Битрейт : 1801 Кбит/сек
Ширина : 720 пикселей
Высота : 400 пикселей
Соотношение сторон : 16:9
Частота кадров : 25,000 кадров/сек
Цветовое пространство : YUV
Субдискретизация насыщенности : 4:2:0
Битовая глубина : 8 бит
Тип развёртки : Прогрессивная
Метод сжатия : С потерями
Бит/(Пиксели*Кадры) : 0.250
Размер потока : 1,20 Гбайт (90%)
Библиотека кодирования : XviD 1.2.1 (UTC 2008-12-04)

Аудио
Идентификатор : 1
Формат : MPEG Audio
Версия формата : Version 1
Профиль формата : Layer 3
Режим : Joint stereo
Расширение режима : MS Stereo
Идентификатор кодека : 55
Идентификатор кодека/Подсказка : MP3
Продолжительность : 1 ч. 35 м.
Вид битрейта : Постоянный
Битрейт : 192 Кбит/сек
Каналы : 2 канала
Частота : 48,0 КГц
Метод сжатия : С потерями
Размер потока : 131 Мбайт (10%)
Выравнивание : Разделение по промежуткам
Продолжительность промежутка : 40 мс. (1,00 видеокадр)
Время предзагрузки промежутка : 500 мс.
Библиотека кодирования : LAME3.99r
Настройки программы : -m j -V 4 -q 2 -lowpass 18.6 -b 192
Скриншоты:


Михаил Задорнов на Torrents45.xyz

Детали торрента:
Название:Михаил Задорнов. Новогодний задорный юбилей (2 часть) (2013.12.31) SATRip
Дата добавления:31 Дек 2013 14:41:40
Размер:1,34 GB
Раздают:3
Качают:0
Форум:Сатирики

All rights reserved © 2015-2019