TORRENTS45.XYZ

Скачать Огги и тараканы / Невероятные приключения кота / Oggy et les cafards (2013) BDRip [720p]


Огги и тараканы / Невероятные приключения кота / Oggy et les cafards (2013) BDRip [720p]
Год выпуска: 2013
Производство: Франция
Жанр: Комедия, Семейный, Мультфильм

Перевод: Не требуется (нет диалогов, немой)
Вид субтитров: Отсутствуют
Навигация по главам: Есть (5)



Дата мировой премьеры: 7 августа 2013
Дата российской премьеры: 26 сентября 2013, «Премиум Фильм»
Дата выхода DVD/Blu-Ray релиза: 23 января 2014, «CP Дистрибуция»

Режиссер: Оливер Жан-Мари
Персонажи: Кот Огги, Тараканы, Кот Джек и другие

Описание фильма:
Добродушный кот Огги любит поесть, поспать и помечтать о высоком. Но его вечно одолевают несносные соседи, отравляя его жизнь злыми шутками и приколами. Кот гоняется за ними с неослабевающим азартом, придумывает всё новые и новые хитроумные уловки, но увы… Покой ему только снится.

Продолжительность: 01:25:27
Качество видео: BDRip-AVC
Сэмпл: Скачать

Видеокодек: MPEG-4 AVC/H.264
Битрейт видео: ~3939 kb/s
Размер кадра: 1280x690
Аудиокодек: AC3 5.1
Битрейт аудио: 448 kb/s

MediaInfo:

Код: выделить все
General
Unique ID                      : 196151352090914831367649571290626396380 (0x93916052BB738938A0331990B5D010DC)
Complete name                  : Oggy.et.les.cafards.2013.720p.torrents45.xyzv
Format                         : Matroska
Format version                 : Version 4 / Version 2
File size                      : 2.67 GiB
Duration                       : 1h 25mn
Overall bit rate               : 4 476 Kbps
Movie name                     : Release for torrents45.xyz />Encoded date                   : UTC 2013-12-29 14:38:48
Writing application            : mkvmerge v6.5.0 ('Isn't she lovely') built on Oct 20 2013 12:50:05
Writing library                : libebml v1.3.0 + libmatroska v1.4.1
Attachment                     : Yes

Video
ID                             : 1
Format                         : AVC
Format/Info                    : Advanced Video Codec
Format profile                 : High@L4.1
Format settings, CABAC         : Yes
Format settings, ReFrames      : 8 frames
Codec ID                       : V_MPEG4/ISO/AVC
Duration                       : 1h 25mn
Bit rate                       : 3 939 Kbps
Width                          : 1 280 pixels
Height                         : 690 pixels
Display aspect ratio           : 1.85:1
Frame rate mode                : Constant
Frame rate                     : 24.000 fps
Color space                    : YUV
Chroma subsampling             : 4:2:0
Bit depth                      : 8 bits
Scan type                      : Progressive
Bits/(Pixel*Frame)             : 0.186
Stream size                    : 2.35 GiB (88%)
Title                          : Огги и тараканы / Невероятные приключения кота / Oggy et les cafards (2013)
Writing library                : x264 core 125 r2208 d9d2288
Encoding settings              : cabac=1 / ref=8 / deblock=1:-3:-3 / analyse=0x3:0x133 / me=umh / subme=11 / psy=1 / psy_rd=1.00:0.20 / mixed_ref=1 / me_range=32 / chroma_me=1 / trellis=2 / 8x8dct=1 / cqm=0 / deadzone=21,11 / fast_pskip=0 / chroma_qp_offset=-3 / threads=12 / lookahead_threads=2 / sliced_threads=0 / nr=0 / decimate=1 / interlaced=0 / bluray_compat=0 / constrained_intra=0 / bframes=12 / b_pyramid=2 / b_adapt=2 / b_bias=0 / direct=1 / weightb=1 / open_gop=0 / weightp=2 / keyint=250 / keyint_min=24 / scenecut=40 / intra_refresh=0 / rc=crf / mbtree=0 / crf=17.5 / qcomp=0.60 / qpmin=0 / qpmax=69 / qpstep=4 / ip_ratio=1.40 / pb_ratio=1.30 / aq=2:1.00
Default                        : Yes
Forced                         : No

Audio
ID                             : 2
Format                         : AC-3
Format/Info                    : Audio Coding 3
Mode extension                 : CM (complete main)
Format settings, Endianness    : Big
Codec ID                       : A_AC3
Duration                       : 1h 25mn
Bit rate mode                  : Constant
Bit rate                       : 448 Kbps
Channel(s)                     : 6 channels
Channel positions              : Front: L C R, Side: L R, LFE
Sampling rate                  : 48.0 KHz
Bit depth                      : 16 bits
Compression mode               : Lossy
Stream size                    : 274 MiB (10%)
Language                       : Russian
Default                        : Yes
Forced                         : No

Menu
00:00:00.000                   : fr:Chapitre 1
00:02:31.292                   : fr:Chapitre 2
00:27:43.083                   : fr:Chapitre 3
00:49:09.750                   : fr:Chapitre 4
01:16:12.917                   : fr:Chapitre 5
Скриншоты:



«Огги и тараканы / Невероятные приключения кота / Oggy et les cafards (2013)» на Torrents45.xyz

Смотреть Online

Детали торрента:
Название:Огги и тараканы / Невероятные приключения кота / Oggy et les cafards (2013) BDRip [720p]
Дата добавления:29 Дек 2013 17:52:19
Размер:2,67 GB
Раздают:2
Качают:0
Форум:Зарубежные Мультфильмы (HD, UHD, UHD-LQ)

All rights reserved © 2015-2019