TORRENTS45.XYZ

Скачать Придут страсти-мордасти (1981) TVRip


Придут страсти-мордасти (1981) TVRip
Год выпуска: 1981
Жанр: Драма, семейный

Описание фильма: Восьмиклассник Ленька Булдырев решает проблему выбора дальнейшего пути в жизни. Эти несколько дней, полные важных событий и впечатлений, становятся для него решающими.

Режиссер: Эрнест Ясан

Актеры: Дмитрий Кузьмин, Антон Гранат, Людмила Шевель, Елена Комиссаренко, Владимир Вихров, Андрей Алексеев, Иван Краско, Валентина Талызина
Описание: Восьмиклассник Ленька решает проблему выбора дальнейшего пути в жизни. Эти несколько дней, полные важных событий и впечатлений, стали для него решающими.

Продолжительность: 01:05:16
Качество видео: TVRip



Видеокодек: DivX 5
Битрейт видео: ~2294 Кбит/сек
Размер кадра: 648x352
Аудиокодек: MP3, 1 ch, 96 Кбит/сек

MediaInfo:

Общее
Полное имя : E:\Интересно\!!!Конкурс детский\2Этап\Придут страсти-мордасти\Придут страсти-мордасти (1981) TVRip.avi
Формат : AVI
Формат/Информация : Audio Video Interleave
Размер файла : 1,09 Гбайт
Продолжительность : 1 ч. 5 м.
Общий поток : 2399 Кбит/сек
Название фильма : Pridut strasti-mordasti
Режиссёр : Lenfil'm
Дата записи : 1981
Программа кодирования : VirtualDubMod 1.5.10.2 (build 2542/release)
Библиотека кодирования : VirtualDubMod build 2542/release
Примечание : TVrip by Turtle / DivX Pro 5.0.3 @ 0,403 bpp / Lame MP3 44,1 kHz Mono @ 96 kbps

Видео
Идентификатор : 0
Формат : MPEG-4 Visual
Параметр BVOP формата : 1
Параметр QPel формата : Нет
Параметр GMC формата : Без точки перехода
Параметр матрицы формата : Default (H.263)
Режим смешивания : Сжатый битовый поток
Идентификатор кодека : DX50
Идентификатор кодека/Подсказка : DivX 5
Продолжительность : 1 ч. 5 м.
Битрейт : 2294 Кбит/сек
Ширина : 648 пикселей
Высота : 352 пикселя
Соотношение сторон : 1,85:1
Частота кадров : 25,000 кадров/сек
Цветовое пространство : YUV
Субдискретизация насыщенности : 4:2:0
Битовая глубина : 8 бит
Тип развёртки : Прогрессивная
Метод сжатия : С потерями
Бит/(Пиксели*Кадры) : 0.402
Размер потока : 1,05 Гбайт (96%)
Библиотека кодирования : DivX 5.0.3 (UTC 2003-01-24)

Аудио
Идентификатор : 1
Формат : MPEG Audio
Версия формата : Version 1
Профиль формата : Layer 3
Идентификатор кодека : 55
Идентификатор кодека/Подсказка : MP3
Продолжительность : 1 ч. 5 м.
Вид битрейта : Постоянный
Битрейт : 96,0 Кбит/сек
Каналы : 1 канал
Частота : 44,1 КГц
Метод сжатия : С потерями
Размер потока : 44,8 Мбайт (4%)
Выравнивание : Разделение по промежуткам
Продолжительность промежутка : 40 мс. (1,00 видеокадр)
Время предзагрузки промежутка : 500 мс.
Скриншоты:








Детали торрента:
Название:Придут страсти-мордасти (1981) TVRip
Дата добавления:05 Дек 2013 20:06:09
Размер:1,09 GB
Раздают:
Качают:0
Форум:Отечественные Фильмы для детей

All rights reserved © 2015-2018