TORRENTS45.XYZ

Скачать Eric Gales Trio - Ghost Notes (2013) [FLAC|Lossless]<Blues-Rock>


Eric Gales Trio - Ghost Notes (2013)
Год: 2013
Жанр: Blues-Rock
Продолжительность: 00:55:58
Лейбл: Tone Center Records
Каталог: TC4074-2

Кодек: FLAC (image+.cue + log)
Битрейт: Lossless

Треклист:
01. Pickin' And Grinnin' (3:47)
02. Just Funk (5:28)
03. Cast Away (5:19)
04. Grandaddy Blues (1:43)
05. Caution (5:15)
06. A Few More Miles (5:34)
07. Ghost Notes (5:15)
08. Way Down (5:20)
09. Misunderstood (5:59)
10. New Beginnings (4:11)
11. EG Shuffle (3:05)
12. Amazing Grace (5:03)

Отчёт ЕАС:

Код:

Exact Audio Copy V1.0 beta 3 from 29. August 2011

Отчёт EAC об извлечении, выполненном 20. октября 2013, 10:57

Eric Gales Trio / Ghost Notes

Дисковод: PLEXTOR DVDR   PX-880SA   Adapter: 1  ID: 0

Режим чтения                 : Достоверность
Использование точного потока : Да
Отключение кэша аудио        : Да
Использование указателей C2  : Нет

Коррекция смещения при чтении                     : 6
Способность читать области Lead-in и Lead-out     : Нет
Заполнение пропущенных сэмплов тишиной            : Да
Удаление блоков с тишиной в начале и конце        : Нет
При вычислениях CRC использовались нулевые сэмплы : Да
Интерфейс                                         : Установленный внешний ASPI-интерфейс

Выходной формат          : Пользовательский кодировщик
Выбранный битрейт        : 1024 kBit/s
Качество                 : Высокий
Добавление ID3-тега      : Нет
Утилита сжатия           : C:\Program Files\Exact Audio Copy\FLAC\FLAC.EXE
Дополнительные параметры : -10 -V -T "ARTIST=%artist%" -T "TITLE=%title%" -T "ALBUM=%albumtitle%" -T "DATE=%year%" -T "TRACKNUMBER=%tracknr%" -T "GENRE=%genre%" -T "COMMENT=%comment%" -T "BAND=%albuminterpret%" -T "ALBUMARTIST=%albuminterpret%" -T "COMPOSER=%composer%" %haslyrics%--tag-from-file=LYRICS="%lyricsfile%"%haslyrics% -T "DISCNUMBER=%cdnumber%" -T "TOTALDISCS=%totalcds%" -T "TOTALTRACKS=%numtracks%" %hascover%--picture="%coverfile%"%hascover% %source% -o %dest%

TOC извлечённого CD

     Трек |   Старт  | Длительность | Начальный сектор | Конечный сектор
    ---------------------------------------------------------------------
       1  |  0:00.00 |    3:47.17   |           0      |      17041
       2  |  3:47.17 |    5:27.38   |       17042      |      41604
       3  |  9:14.55 |    5:18.50   |       41605      |      65504
       4  | 14:33.30 |    1:43.12   |       65505      |      73241
       5  | 16:16.42 |    5:14.50   |       73242      |      96841
       6  | 21:31.17 |    5:33.43   |       96842      |     121859
       7  | 27:04.60 |    5:15.13   |      121860      |     145497
       8  | 32:19.73 |    5:20.21   |      145498      |     169518
       9  | 37:40.19 |    5:58.70   |      169519      |     196438
      10  | 43:39.14 |    4:10.74   |      196439      |     215262
      11  | 47:50.13 |    3:04.46   |      215263      |     229108
      12  | 50:54.59 |    5:03.02   |      229109      |     251835

Характеристики диапазона извлечения и сообщения об ошибках

Выбранный диапазон

     Имя файла D:\BitComet\Eric Gales Trio - Ghost Notes(2013)\Eric Gales Trio - Ghost Notes.wav

     Пиковый уровень 100.0 %
     Скорость извлечения 8.8 X
     Качество диапазона 100.0 %
     CRC теста C4F233D6
     CRC копии C4F233D6
     Копирование... OK

Ошибок не произошло

AccurateRip: сводка

Трек  1  отсутствует в базе данных
Трек  2  отсутствует в базе данных
Трек  3  отсутствует в базе данных
Трек  4  отсутствует в базе данных
Трек  5  отсутствует в базе данных
Трек  6  отсутствует в базе данных
Трек  7  отсутствует в базе данных
Трек  8  отсутствует в базе данных
Трек  9  отсутствует в базе данных
Трек 10  отсутствует в базе данных
Трек 11  отсутствует в базе данных
Трек 12  отсутствует в базе данных

Ни одного трека нет в базе AccurateRip

Конец отчёта

==== Контрольная сумма отчёта 35C4FFD25265B7A12FD1B690CEFE18A2BE10BA4E1D583397624C678C5A5863D4 ====

Отчёт auCDtect Task manager:

Код:

-----------------------

DON'T MODIFY THIS FILE

-----------------------

PERFORMER: auCDtect Task Manager, ver. 1.6.0 RC1 build 1.6.0.1
Copyright (c) 2008-2010 y-soft. All rights reserved
http://y-soft.org

ANALYZER: auCDtect: CD records authenticity detector, version 0.8.2
Copyright (c) 2004 Oleg Berngardt. All rights reserved.
Copyright (c) 2004 Alexander Djourik. All rights reserved.

FILE: Eric Gales Trio - Ghost Notes.flac
  Size: 393370021 Hash: 21803D8DCCFB3CD5DA0C5398FC47A108 Accuracy: -m8
  Conclusion: CDDA 54%
  Signature: 36FE136BE0966A7629FF75FE165698D2E6EDC67B
Детали торрента:
Название:Eric Gales Trio - Ghost Notes (2013) [FLAC|Lossless]<Blues-Rock>
Дата добавления:03 Дек 2013 10:15:16
Размер:420 MB
Раздают:1
Качают:0
Форум:Blues, Soul (Lossless)

All rights reserved © 2015-2019