TORRENTS45.XYZ

Скачать АБВГДейка. Твердые и мягкие согласные (2007) DVDRip [H.264]


АБВГДейка. Твердые и мягкие согласные (2007) DVDRip [H.264]
Год выпуска: 2007
Жанр: Детская обучающая передача

Описание фильма:"АБВГДейка, АБВГДейка - это учеба и игра, АБВГДейка, АБВГДейка азбуку детям знать пора"… Под таким девизом эта развлекательно-обучающая программа для дошкольников с небольшими перерывами выходит в эфир вот уже тридцать лет.
Все уроки в "АБВГДейке" проходят в форме веселого игрового спектакля. Постоянные персонажи передачи клоуны Клепа, Саня, Макаронка и учительница Ксюша Сергеевна учат маленьких зрителей грамоте, счету, правилам дорожного движения и многим другим премудростям. Ну, а письма ребят носит почтальон Печкин.
Любимая программа изменила свой формат: во-первых, бессменная учительница Татьяна Кирилловна передала свою указку и место у доски молоденькой Ксюше Сергеевне, оставляя за собой лишь место директора школы и право читать и разбирать письма. Во-вторых, пришли новые актеры, исполняющие главные роли. И в-третьих, удивительное, ну просто волшебное место съемки - виртуальная студия, которая сделала передачу еще более красочной и динамичной.

Занятие посвящено твердым и мягким согласным

Режиссер: В.Д. Белобородов
Актеры: Т.К. Черняева, С.Балобанов, К.Кузнецова, А. Вдовин, А.Коврижных, В.Макарова

Продолжительность: 00:25:48
Качество видео: DVDRip

Видеокодек: MPEG-4 AVC/H.264
Битрейт видео: ~ 2354 Кбит/сек
Размер кадра: 720x552
Аудиокодек: AC3, 5.1
Битрейт аудио: 224 Кбит/сек

MediaInfo:

Общее
Полное имя : E:\Интересно\!!!Конкурс детский\1Этап\!Развивающее Видео для детей\АБВГДейка\Rip\7\АБВГДейка. Твердые и мягкие согласные(2007) DVDRip [H.264]\АБВГДейка. Твердые и мягкие согласные (2007) DVDRip [H.264].mkv
Формат : MPEG-4
Профиль формата : Base Media / Version 2
Идентификатор кодека : mp42
Размер файла : 478 Мбайт
Продолжительность : 25 м.
Общий поток : 2589 Кбит/сек
Дата кодирования : UTC 2013-11-24 06:36:46
Дата пометки : UTC 2013-11-24 06:43:58

Видео
Идентификатор : 1
Формат : AVC
Формат/Информация : Advanced Video Codec
Профиль формата : Main@L3.0
Параметр CABAC формата : Да
Параметр ReFrames формата : 1 кадр
Параметр GOP формата : N=1
Идентификатор кодека : avc1
Идентификатор кодека/Информация : Advanced Video Coding
Продолжительность : 25 м.
Вид битрейта : Переменный
Битрейт : 2354 Кбит/сек
Ширина : 720 пикселей
Высота : 552 пикселя
Соотношение сторон : 4:3
Режим частоты кадров : Постоянный
Частота кадров : 25,000 кадров/сек
Цветовое пространство : YUV
Субдискретизация насыщенности : 4:2:0
Битовая глубина : 8 бит
Тип развёртки : Прогрессивная
Бит/(Пиксели*Кадры) : 0.237
Размер потока : 434 Мбайт (91%)
Библиотека кодирования : x264 core
Дата кодирования : UTC 2013-11-24 06:36:46
Дата пометки : UTC 2013-11-24 06:43:54
Основные цвета : BT.601 NTSC
Характеристики трансфера : BT.709
Коэффициенты матрицы : BT.601

Аудио
Идентификатор : 2
Формат : AC-3
Формат/Информация : Audio Coding 3
Расширение режима : CM (complete main)
Параметр Endianness формата : Big
Идентификатор кодека : ac-3
Продолжительность : 25 м.
Вид битрейта : Постоянный
Битрейт : 224 Кбит/сек
Каналы : 6 каналов
Расположение каналов : Front: L C R, Side: L R, LFE
Частота : 48,0 КГц
Битовая глубина : 16 бит
Метод сжатия : С потерями
Размер потока : 41,3 Мбайт (9%)
Язык : Russian
Дата кодирования : UTC 2013-11-24 06:36:46
Дата пометки : UTC 2013-11-24 06:43:48
Скриншоты:


Детали торрента:
Название:АБВГДейка. Твердые и мягкие согласные (2007) DVDRip [H.264]
Дата добавления:24 Ноя 2013 14:36:42
Размер:478 MB
Раздают:
Качают:0
Форум:Развивающее Видео для детей

All rights reserved © 2015-2018