TORRENTS45.XYZ

Скачать Monster Magnet - Last Patrol (2013) Limited Edition [FLAC|Lossless]<Stoner Rock/Hard Rock>


Monster Magnet - Last Patrol (2013)
Год: 2013
Жанр: Stoner Rock/Hard Rock
Страна: США
Продолжительность: 01:01:04

Издатель: Napalm Records
Номер по каталогу: NPR 490
Кодек: FLAC (image+.cue)
Битрейт: Lossless

Треклист:
01. I Live Behind the Clouds (4:26)
02. Last Patrol (9:24)
03. Three Kingfishers (4:34)
04. Paradise (4:31)
05. Hallelujah (4:13)
06. Mindless Ones (5:31)
07. The Duke of Supernature (5:00)
08. End of Time (7:45)
09. Stay Tuned (5:54)
10. Strobe Light Beatdown (Bonus Track) (4:26)
11. One Dead Moon (Bonus Track) (5:20)

Отчёт ЕАС:

Код:

Exact Audio Copy V1.0 beta 3 from 29. August 2011

EAC extraction logfile from 28. October 2013, 18:10

Monster Magnet / Last Patrol (Napalm Records, NPR 490)

Used drive  : PIONEER DVD-RW  DVR-219L   Adapter: 1  ID: 0

Read mode               : Secure
Utilize accurate stream : Yes
Defeat audio cache      : Yes
Make use of C2 pointers : No

Read offset correction                      : 6
Overread into Lead-In and Lead-Out          : No
Fill up missing offset samples with silence : Yes
Delete leading and trailing silent blocks   : No
Null samples used in CRC calculations       : Yes
Used interface                              : Native Win32 interface for Win NT & 2000

Used output format : Internal WAV Routines
Sample format      : 44.100 Hz; 16 Bit; Stereo

TOC of the extracted CD

     Track |   Start  |  Length  | Start sector | End sector
    ---------------------------------------------------------
        1  |  0:00.00 |  4:25.73 |         0    |    19947
        2  |  4:25.73 |  9:23.40 |     19948    |    62212
        3  | 13:49.38 |  4:33.62 |     62213    |    82749
        4  | 18:23.25 |  4:31.29 |     82750    |   103103
        5  | 22:54.54 |  4:13.30 |    103104    |   122108
        6  | 27:08.09 |  5:30.72 |    122109    |   146930
        7  | 32:39.06 |  4:59.70 |    146931    |   169425
        8  | 37:39.01 |  7:45.14 |    169426    |   204314
        9  | 45:24.15 |  5:54.29 |    204315    |   230893
       10  | 51:18.44 |  4:26.03 |    230894    |   250846
       11  | 55:44.47 |  5:19.51 |    250847    |   274822

Range status and errors

Selected range

     Filename D:\.www.AvaxHome.ru\Monster Magnet - Last Patrol (Napalm Records, NPR 490).wav

     Peak level 97.7 %
     Extraction speed 7.5 X
     Range quality 99.9 %
     Test CRC 234D470C
     Copy CRC 234D470C
     Copy OK

No errors occurred

AccurateRip summary

Track  1  not present in database
Track  2  not present in database
Track  3  not present in database
Track  4  not present in database
Track  5  not present in database
Track  6  not present in database
Track  7  not present in database
Track  8  not present in database
Track  9  not present in database
Track 10  not present in database
Track 11  not present in database

None of the tracks are present in the AccurateRip database

End of status report

---- CUETools DB Plugin V2.1.4

[CTDB TOCID: 9YMe7E4XAp3TSn4gxN0d6Yt5lGI-] found
Submit result: 9YMe7E4XAp3TSn4gxN0d6Yt5lGI- has been confirmed
Track | CTDB Status
  1   | (17/17) Accurately ripped
  2   | (16/17) Accurately ripped
  3   | (16/17) Accurately ripped
  4   | (17/17) Accurately ripped
  5   | (17/17) Accurately ripped
  6   | (17/17) Accurately ripped
  7   | (17/17) Accurately ripped
  8   | (17/17) Accurately ripped
  9   | (17/17) Accurately ripped
 10   | (17/17) Accurately ripped
 11   | (17/17) Accurately ripped

==== Log checksum 696FA82F7C0C0542803E7975AAA606AEB212567B4CEBDDFE0517777CE184BC3C ====

Отчёт auCDtect Task manager:

Код:

-----------------------

DON'T MODIFY THIS FILE

-----------------------

PERFORMER: auCDtect Task Manager, ver. 1.5.1RC4 build 1.5.1.5
Copyright (c) 2008-2010 y-soft. All rights reserved
http://y-soft.org

ANALYZER: auCDtect: CD records authenticity detector, version 0.8.2
Copyright (c) 2004 Oleg Berngardt. All rights reserved.
Copyright (c) 2004 Alexander Djourik. All rights reserved.

FILE: Monster Magnet - Last Patrol (Napalm Records, NPR 490).flac
  Size: 449374758 Hash: F239C9A183B032004D20A04C80A32674 Accuracy: -m0
  Conclusion: CDDA 100%
  Signature: 004A6FE95C73C6D08B0686BEB1C9721F2E5D3D25

За предоставленный материал спасибо

Детали торрента:
Название:Monster Magnet - Last Patrol (2013) Limited Edition [FLAC|Lossless]<Stoner Rock/Hard Rock>
Дата добавления:16 Ноя 2013 13:49:41
Размер:497 MB
Раздают:1
Качают:0
Форум:Hard Rock (Lossless)

All rights reserved © 2015-2019