TORRENTS45.XYZ

Скачать Смурфики 2 / The Smurfs 2 (2013) BDRip


Смурфики 2/ The Smurfs 2
(2013) BDRip

" Увидеть Париж и... смурфеть!"
Русское название: Смурфики 2
Оригинальное название: The Smurfs 2
Жанр: мультфильм, фэнтези, комедия, семейный
Производство: США
Год выпуска:2013
Кинокомпания: Columbia Pictures, Sony Pictures Animation, Hemisphere Media Capital
Язык: украинский, русский, английски
Перевод: Дублированый
Источник озвучки: студия“ LeDoyen ”
Описание:
Гаргамел создаёт Хакуса и Векси, как две капли воды похожую на смурфиков злобную парочку, надеясь всё-таки обрести магическую силу. Когда он узнаёт, что лишь настоящий смурф может дать ему то, что он хочет, и лишь Смурфетта способна превратить Хакуса и Векси в настоящих смурфов, Гаргамел похищает Смурфетту и берёт её с собой в Париж, планируя сделать её своей прислужницей. Но смурфики — Папа, Растяпа, Смельчак, Ворчун, Красавчик, Благоразумник — и их друзья из Нью-Йорка этого так не оставят. Тем более что к ним присоединился новорождённый Голубчик.
Режиссер: Раджа Госнелл
Продюсер: Вероника Каллифорд, Джордан Кернер, Беннита Аллен
Персонажи: Хэнк Азария, Нил Патрик Харрис, Брендан Глисон, Джейма Мейс, Патрик Сабонгуй, Кэти Перри, Кристина Риччи, Джонатан Уинтерс, Джордж Лопез, Антон Ельчин, ..
Дата мировой премьеры: 28 июля 2013,
Дата украинской премьеры: 31 июля 2013,
Дата выхода DVD релиза: 19 ноября 2013, «Columbia/Sony»,
Дата выхода Blu-Ray релиза: 19 ноября 2013, «Columbia/Sony»,


Продолжительность: 01:40:42
Качество видео: BDRip

Видеокодек: Xvid
Битрейт видео: ~1893 кб/с
Размер кадра: 720х304
Аудио #1: AC-3, 48.0 KHz, 6 ch, 448 Kbps, CBR (украинский |Лицензия, Blu-ray CEE| )
Аудио #2: AC-3, 48.0 KHz, 6 ch, 448 Kbps, CBR (русcкий |Лицензия, Blu-ray CEE| )
Аудио #3: AC-3, 48.0 KHz, 6 ch, 448 Kbps, CBR (английский |Original| )

MediaInfo

E:\Фільми\The.Smurfs.2.2013.BDRip_Ukr_Rus_Eng.avi
General
Complete name : E:\Фільми\The.Smurfs.2.2013.BDRip_Ukr_Rus_Eng.avi
Format : AVI
Format/Info : Audio Video Interleave
Format profile : OpenDML
File size : 2.39 GiB
Duration : 1h 44mn
Overall bit rate : 3 259 Kbps
Writing application : VirtualDubMod 1.5.10.2 (build 2540/release)
Writing library : VirtualDubMod build 2540/release
Video #0
ID : 0
Format : MPEG-4 Visual
Format profile : Advanced Simple@L5
Format settings, BVOP : 2
Format settings, QPel : No
Format settings, GMC : No warppoints
Format settings, Matrix : Custom
Codec ID : XVID
Codec ID/Hint : XviD
Duration : 1h 44mn
Bit rate : 1 893 Kbps
Width : 720 pixels
Height : 384 pixels
Display aspect ratio : 1.85:1
Frame rate : 23.976 fps
Color space : YUV
Chroma subsampling : 4:2:0
Bit depth : 8 bits
Scan type : Progressive
Compression mode : Lossy
Bits/(Pixel*Frame) : 0.286
Stream size : 1.39 GiB (58%)
Writing library : XviD 1.2.1 (UTC 2008-12-04)
Audio #1
ID : 1
Format : AC-3
Format/Info : Audio Coding 3
Mode extension : CM (complete main)
Format settings, Endianness : Big
Codec ID : 2000
Duration : 1h 44mn
Bit rate mode : Constant
Bit rate : 448 Kbps
Channel count : 6 channels
Channel positions : Front: L C R, Side: L R, LFE
Sampling rate : 48.0 KHz
Bit depth : 16 bits
Compression mode : Lossy
Stream size : 336 MiB (14%)
Alignment : Split accross interleaves
Interleave, duration : 42 ms (1.00 video frame)
Interleave, preload duration : 500 ms
Audio #2
ID : 2
Format : AC-3
Format/Info : Audio Coding 3
Mode extension : CM (complete main)
Format settings, Endianness : Big
Codec ID : 2000
Duration : 1h 44mn
Bit rate mode : Constant
Bit rate : 448 Kbps
Channel count : 6 channels
Channel positions : Front: L C R, Side: L R, LFE
Sampling rate : 48.0 KHz
Bit depth : 16 bits
Compression mode : Lossy
Stream size : 336 MiB (14%)
Alignment : Split accross interleaves
Interleave, duration : 42 ms (1.00 video frame)
Interleave, preload duration : 500 ms
Audio #3
ID : 3
Format : AC-3
Format/Info : Audio Coding 3
Mode extension : CM (complete main)
Format settings, Endianness : Big
Codec ID : 2000
Duration : 1h 44mn
Bit rate mode : Constant
Bit rate : 448 Kbps
Channel count : 6 channels
Channel positions : Front: L C R, Side: L R, LFE
Sampling rate : 48.0 KHz
Bit depth : 16 bits
Compression mode : Lossy
Stream size : 336 MiB (14%)
Alignment : Split accross interleaves
Interleave, duration : 42 ms (1.00 video frame)
Interleave, preload duration : 500 ms

Рецензия к фильму

Приключения КиндерАватаров в мире животних Второе пришествие милых и забавных смурфиков получилось практически ничем не хуже их первого визита на большие экраны. Удачные кассовые сборы первой части по-быстрому и без всяких там лишних задержек родили этот милый и веселый сиквел. Поменять режиссера было бы неразумно, ведь Раджа Госнелл успешно возродил маленьких существ небесно-голубого цвета, поместив их в один флакон с семейной комедией. Анимационные мультяшные персонажи уже во второй серии что-то мутят вместе с плохо подобранным актерским составом живых людей. Актеры и вправду выглядели глупо. Их наивные и чересчур раздражительные диалоги межу собой и компанией смурфов бесили на протяжении всего мульта. Минус, конечно, не габаритных размеров, но иногда от недовольства приходилось кривить лицом. С одной стороны, мне кажется, что соединить в одном сюжете всем хорошо знакомых мультяшных персонажей вместе с реальным миром и людьми, было попыткой выделиться из огромной кучи других анимационных мультиков. Ну что ж, вроде бы все получилось, смурфики и вправду выделяются из общего потока своего жанрового брата.

«The Smurfs 2» продолжает историю непонятно откуда взявших лесных созданий (все время жрущих малину и теряющих сознание от красоты единственной девушки в их деревне, — Смурфетты), нарисованных бельгийским художником Пьером Кюллифором. В деревне штрумфов опять веселье, смех и радость. На этот раз, синие, мелкие джентльмены готовят праздник для прекрасной Смурфетты, на чьем персонаже держится часть фундамента всей истории. Ведь когда-то очень давно злой и ужасный колдун Гаргамель создал Смурфетту, покладая на нее надежду, что ей получится обманом взять на абордаж мир смурфов. Но Смурфетта оказалась чуткой, доброй, а еще очень разумной девушкой. Зачем ей вкалывать на какого-то носатого идиота-колдуна и все время быть у него на побегушках, если можно жить в мире радости, бесконечных запасов малины, и при этом еще носить невидимую корону королевы-фифы всего лесного братства. Как и другие злые персонажи, Гаргомель очень злопамятный. С помощью своих двух неудачных экспериментов, так называемых «недосмурфвоф», он похищает предательницу Смурфетту. Вот, собственно, с этого момента и стартует сюжет второй части. Смурфики отправляются в Париж, где встречают старых друзей, вместе с которыми отправляются на поиски потерянной блондинки Смурфетты.

Парижские приключения ребятам удались. Сюжет был достаточно динамичен, жаль только, что основная часть юмора была до жути наивной. «Смурфики 2» — весьма удачное продолжение, созданное в той же манере на радость детям, где все было слишком просто и предсказуемо, где доброта в позитив рулили от начала до конца.
6 из 10
______________________________________________________________________________
Все релизы (" Смурфики 2 ") на трекере
______________________________________________________________________________
Скриншоты:



______________________________________________________________________________


Смотреть Online

http://moonwalk.cc/video/a29ef07ad39328ad2cc1444f7bdd17c3/iframe
Детали торрента:
Название:Смурфики 2 / The Smurfs 2 (2013) BDRip
Дата добавления:16 Ноя 2013 13:35:48
Размер:2,39 GB
Раздают:1
Качают:0
Форум:Зарубежные Фильмы для детей

All rights reserved © 2015-2018