TORRENTS45.XYZ

Скачать VA - Blues Piano Orgy (1996) [FLAC|Lossless]<Piano Blues>


VA - Blues Piano Orgy (1996)
Год: 1996
Страна-производитель диска: USA
Издатель (лейбл): Delmark Records
Номер по каталогу #: DE-626
Жанр: Piano Blues
Продолжительность: 01:00:46

Кодек: FLAC (*.flac)
Битрейт: Lossless
Тип рипа: image+.cue
Спасибо: Gbiz

Треклист:
Speckled Red
01. Blues Hurt My Tongue to Talk - 4:12
Roosevelt Sykes
02. Dresser Drawers - 2:43
03. Concentration Blues - 2:56
04. Kickin' Motor Scooter - 2:51
05. (New Year's) Resolution Blues - 2:28
Sunnyland Slim
06. My Baby's Coming With a Marriage License - 3:13
07. Poor Boy - 4:04
08. Everytime I Get to Drinkin' - 3:09
09. Depression Blues - 3:03
Little Brother Montgomery
10. Stendahl Stomp - 2:49
11. Tremblin' Blues - 3:05
12. No Special Rider Blues - 2:38
13. Bass Key Boogie - 2:57

Продолжение трек листа:

Memphis Slim
14. Five O'Clock Blues - 2:51
15. Nat Dee Special - 2:47
Curtis Jones
16. Lonesome Bedroom Blues - 5:10
17. Takin' Off - 2:55
18. Tin Pan Alley - 3:06
Otis Spann
19. Three-In-One Blues - 2:25

Отчёт ЕАС:

Код:

Exact Audio Copy V1.0 beta 3 from 29. August 2011

Отчёт EAC об извлечении, выполненном 29. октября 2013, 20:52

Various Artists / Blues Piano Orgy

Дисковод: HL-DT-STBD-RE  BH10LS38   Adapter: 6  ID: 0

Режим чтения                 : Достоверность
Использование точного потока : Да
Отключение кэша аудио        : Да
Использование указателей C2  : Нет

Коррекция смещения при чтении                     : 667
Способность читать области Lead-in и Lead-out     : Нет
Заполнение пропущенных сэмплов тишиной            : Да
Удаление блоков с тишиной в начале и конце        : Нет
При вычислениях CRC использовались нулевые сэмплы : Да
Интерфейс                                         : Встроенный Win32-интерфейс для Win NT/2000

Выходной формат          : Пользовательский кодировщик
Выбранный битрейт        : 1024 kBit/s
Качество                 : Высокий
Добавление ID3-тега      : Да
Утилита сжатия           : C:\Program Files (x86)\FLAC\flac.exe
Дополнительные параметры :  -V -8 -T "Date=%year%" -T "Genre=%genre%" %source%

TOC извлечённого CD

     Трек |   Старт  | Длительность | Начальный сектор | Конечный сектор
    ---------------------------------------------------------------------
       1  |  0:00.00 |    4:16.05   |           0      |      19204
       2  |  4:16.05 |    2:47.57   |       19205      |      31786
       3  |  7:03.62 |    3:00.40   |       31787      |      45326
       4  | 10:04.27 |    2:55.48   |       45327      |      58499
       5  | 13:00.00 |    2:31.65   |       58500      |      69889
       6  | 15:31.65 |    3:17.22   |       69890      |      84686
       7  | 18:49.12 |    4:09.15   |       84687      |     103376
       8  | 22:58.27 |    3:14.15   |      103377      |     117941
       9  | 26:12.42 |    3:06.13   |      117942      |     131904
      10  | 29:18.55 |    2:53.62   |      131905      |     144941
      11  | 32:12.42 |    3:09.03   |      144942      |     159119
      12  | 35:21.45 |    2:42.22   |      159120      |     171291
      13  | 38:03.67 |    3:01.05   |      171292      |     184871
      14  | 41:04.72 |    2:56.43   |      184872      |     198114
      15  | 44:01.40 |    2:51.35   |      198115      |     210974
      16  | 46:53.00 |    5:16.02   |      210975      |     234676
      17  | 52:09.02 |    2:58.45   |      234677      |     248071
      18  | 55:07.47 |    3:11.18   |      248072      |     262414
      19  | 58:18.65 |    2:25.40   |      262415      |     273329

Характеристики диапазона извлечения и сообщения об ошибках

Выбранный диапазон

     Имя файла J:\556\Various Artists - Blues Piano Orgy.wav

     Пиковый уровень 100.0 %
     Скорость извлечения 1.9 X
     Качество диапазона 99.9 %
     CRC теста A79E9603
     CRC копии A79E9603
     Копирование... OK

Ошибок не произошло

AccurateRip: сводка

Трек  1  точность не определена (достоверность 2)  [A2F9B985], AccurateRip вернул [7C4854E7]  (AR v2)
Трек  2  точность не определена (достоверность 2)  [EE850484], AccurateRip вернул [061121F3]  (AR v2)
Трек  3  точность не определена (достоверность 2)  [1E4B042E], AccurateRip вернул [CFAA469E]  (AR v2)
Трек  4  точность не определена (достоверность 2)  [D3DA5300], AccurateRip вернул [592E8B00]  (AR v2)
Трек  5  точность не определена (достоверность 2)  [65DC0837], AccurateRip вернул [FEE691DB]  (AR v2)
Трек  6  точность не определена (достоверность 2)  [BD144232], AccurateRip вернул [B9E59254]  (AR v2)
Трек  7  точность не определена (достоверность 2)  [77478A65], AccurateRip вернул [E978DDE0]  (AR v2)
Трек  8  точность не определена (достоверность 2)  [A8D56DFB], AccurateRip вернул [B9A6F9F0]  (AR v2)
Трек  9  точность не определена (достоверность 2)  [1E8FF531], AccurateRip вернул [FA2FAAC1]  (AR v2)
Трек 10  точность не определена (достоверность 2)  [573E27D6], AccurateRip вернул [60D35EA4]  (AR v2)
Трек 11  точность не определена (достоверность 2)  [021DB926], AccurateRip вернул [988DDACE]  (AR v2)
Трек 12  точность не определена (достоверность 2)  [61420E6E], AccurateRip вернул [D99BAD6A]  (AR v2)
Трек 13  точность не определена (достоверность 2)  [AC490265], AccurateRip вернул [6F88505D]  (AR v2)
Трек 14  точность не определена (достоверность 2)  [09D5F438], AccurateRip вернул [DB0C1FD6]  (AR v2)
Трек 15  точность не определена (достоверность 2)  [6D92B35F], AccurateRip вернул [AB96E6FB]  (AR v2)
Трек 16  точность не определена (достоверность 2)  [7FDFDAB4], AccurateRip вернул [53956D95]  (AR v2)
Трек 17  точность не определена (достоверность 2)  [A47B8814], AccurateRip вернул [613947C3]  (AR v2)
Трек 18  точность не определена (достоверность 2)  [72CA00E5], AccurateRip вернул [9A13D2D1]  (AR v2)
Трек 19  точность не определена (достоверность 2)  [BB9FF984], AccurateRip вернул [642AC19F]  (AR v2)

Ни один трек не прошёл проверки на точность
В вашей базе может быть иной вариант штамповки диска

Конец отчёта

==== Контрольная сумма отчёта 0386D5AADF38D6CAC35144F7B60EB163BFE250E56B452871FECE6931B6457A1F ====

Отчёт auCDtect Task manager:

Код:

-----------------------

DON'T MODIFY THIS FILE

-----------------------

PERFORMER: auCDtect Task Manager, ver. 1.6.0 RC1 build 1.6.0.1
Copyright (c) 2008-2010 y-soft. All rights reserved
http://y-soft.org

ANALYZER: auCDtect: CD records authenticity detector, version 0.8.2
Copyright (c) 2004 Oleg Berngardt. All rights reserved.
Copyright (c) 2004 Alexander Djourik. All rights reserved.

FILE: Various Artists - Blues Piano Orgy.flac
  Size: 242654909 Hash: 337912123D4BB5C40EB59A0D077112DA Accuracy: -m0
  Conclusion: CDDA 99%
  Signature: D10712833DF351C49811F3C30F0BCD5E76154AB6

Содержание индексной карты .CUE:

Код:

REM GENRE Blues
REM DATE 1996
REM DISCID F30E3C13
REM COMMENT "ExactAudioCopy v1.0b3"
PERFORMER "Various Artists"
TITLE "Blues Piano Orgy"
FILE "Various Artists - Blues Piano Orgy.flac" WAVE
  TRACK 01 AUDIO
    TITLE "Blues Hurt My Tongue To Talk"
    PERFORMER "Speckled Red"
    INDEX 01 00:00:00
  TRACK 02 AUDIO
    TITLE "Dresser Drawers"
    PERFORMER "Roosevelt Sykes"
    INDEX 00 04:12:40
    INDEX 01 04:16:05
  TRACK 03 AUDIO
    TITLE "Concentration Blues"
    PERFORMER "Roosevelt Sykes"
    INDEX 00 07:00:20
    INDEX 01 07:03:62
  TRACK 04 AUDIO
    TITLE "Kickin' Motor Scooter"
    PERFORMER "Roosevelt Sykes"
    INDEX 00 10:00:60
    INDEX 01 10:04:27
  TRACK 05 AUDIO
    TITLE "(New Year's) Resolution Blues"
    PERFORMER "Roosevelt Sykes"
    INDEX 00 12:56:32
    INDEX 01 13:00:00
  TRACK 06 AUDIO
    TITLE "My Baby's Coming With A Marriage License"
    PERFORMER "Sunnyland Slim"
    INDEX 00 15:29:25
    INDEX 01 15:31:65
  TRACK 07 AUDIO
    TITLE "Poor Boy"
    PERFORMER "Sunnyland Slim"
    INDEX 00 18:46:17
    INDEX 01 18:49:12
  TRACK 08 AUDIO
    TITLE "Every Time I Get To Drinkin'"
    PERFORMER "Sunnyland Slim"
    INDEX 00 22:53:50
    INDEX 01 22:58:27
  TRACK 09 AUDIO
    TITLE "Depression Blues"
    PERFORMER "Sunnyland Slim"
    INDEX 00 26:08:07
    INDEX 01 26:12:42
  TRACK 10 AUDIO
    TITLE "Stendahl Stomp"
    PERFORMER "Little Brother Montgomery"
    INDEX 00 29:16:45
    INDEX 01 29:18:55
  TRACK 11 AUDIO
    TITLE "Termblin' Blues"
    PERFORMER "Little Brother Montgomery"
    INDEX 00 32:09:00
    INDEX 01 32:12:42
  TRACK 12 AUDIO
    TITLE "No Special Rider"
    PERFORMER "Little Brother Montgomery"
    INDEX 00 35:17:72
    INDEX 01 35:21:45
  TRACK 13 AUDIO
    TITLE "Bass Key Boogie"
    PERFORMER "Little Brother Montgomery"
    INDEX 00 38:00:25
    INDEX 01 38:03:67
  TRACK 14 AUDIO
    TITLE "Five O'Clock Blues"
    PERFORMER "Memphis Slim"
    INDEX 00 41:01:35
    INDEX 01 41:04:72
  TRACK 15 AUDIO
    TITLE "Nat Dee Special"
    PERFORMER "Memphis Slim"
    INDEX 00 43:56:70
    INDEX 01 44:01:40
  TRACK 16 AUDIO
    TITLE "Lonesome Bedroom Blues"
    PERFORMER "Curtis Jones"
    INDEX 00 46:49:17
    INDEX 01 46:53:00
  TRACK 17 AUDIO
    TITLE "Takin' Off"
    PERFORMER "Curtis Jones"
    INDEX 00 52:03:42
    INDEX 01 52:09:02
  TRACK 18 AUDIO
    TITLE "Tin Pan Alley Blues"
    PERFORMER "Curtis Jones"
    INDEX 00 55:04:40
    INDEX 01 55:07:47
  TRACK 19 AUDIO
    TITLE "Three-In-One Blues"
    PERFORMER "Otis Spann"
    INDEX 00 58:14:17
    INDEX 01 58:18:65

Детали торрента:
Название:VA - Blues Piano Orgy (1996) [FLAC|Lossless]<Piano Blues>
Дата добавления:07 Ноя 2013 07:47:22
Размер:241 MB
Раздают:2
Качают:0
Форум:Blues, Soul (Lossless)

All rights reserved © 2015-2018