TORRENTS45.XYZ

Скачать Джобс: Империя соблазна / jOBS (2013) BDRip [1080p]


Джобс: Империя соблазна / jOBS (2013) BDRip [1080p]
«Некоторые видят возможности, другие меняют эти возможности»

Год выпуска: 2013
Производство: США | Open Road Films (II), Five Star Institute, IF Entertainment
Жанр: Драма, Биография
Перевод: Дублированный
Субтитры: Отсутствуют
Дата мировой премьеры: 25 января 2013 (США, Кинофестиваль «Сандэнс»)
Дата российской премьеры: 19 сентября 2013, «UPI»
Дата выхода DVD релиза: 5 ноября 2013, «ВС трейд»
Дата выхода Blu-Ray релиза: 5 ноября 2013, «ВС трейд»
Режиссер: Джошуа Майкл Штерн / Joshua Michael Stern
Продюсер: Артур Бенжамин, Рональд Булард, Майкл Кэйн
Актеры: Эштон Кутчер, Дермот Малруни, Джош Гад, Лукас Хаас, Дж.К. Симмонс, Лесли Энн Уоррен, Рон Элдард, Ана О’Райли, Джон Гец, Джеймс Вудс ...
Роли дублировали: Александр Гаврилин, Диомид Виноградов, Даниил Эльдаров, Владимир Еремин, Иван Жарков ...
Описание фильма:
Он был молод, красив и чертовски талантлив. Начав с нуля, он смог построить мировую империю соблазна. О нем грезили женщины. Ему завидовали мужчины. Он соблазнил миллионы. Его звали Стив Джобс.


Продолжительность: 02:02:16
Качество видео: BDRip 1080p

Видеокодек: MPEG-4 AVC/H.264
Битрейт видео: ~ 7683 Кбит/сек
Размер кадра: 1920 x 804 (2.388) at 25.000 fps : 0.199 bit/pixel
Аудио #1: DTS 1509 Кбит/сек (6ch), 48,0 КГц, 24 бит [Русский, Дубляж]
Аудио #2: AC3 448 Кбит/сек (6ch), 48,0 КГц, 16 бит [Английский]
Дополнительно: Сохранены оригинальные чаптеры как на Blu-ray
Релиз:

Трейлер / Ролик

MediaInfo:

Код: выделить все

Уникальный идентификатор                 : 234766172841137213145182035024184244574 (0xB09E51F9F6B5D975917A627834F2795E)
Полное имя                               : F:\Джобс Империя соблазна  jOBS 2013 BD-Remux BDRip\jOBS.2013.BDRip.1080p.torrents45.xyzU.mkv
Формат                                   : Matroska
Версия формата                           : Version 2
Размер файла                             : 8,40 Гбайт
Продолжительность                        : 2 ч. 2 м.
Общий поток                              : 9836 Кбит/сек
Название фильма                          : jOBS.2013.BDRip.1080p.torrents45.xyzU.mkv
Дата кодирования                         : UTC 2013-11-03 19:06:02
Программа кодирования                    : mkvmerge v2.9.9 ('Tutu') built on Nov 25 2009 21:13:32
Библиотека кодирования                   : libebml v0.7.9 + libmatroska v0.8.1

Видео
Идентификатор                            : 1
Формат                                   : AVC
Формат/Информация                        : Advanced Video Codec
Профиль формата                          : High@L4.1
Параметр CABAC формата                   : Да
Параметр ReFrames формата                : 5 кадров
Идентификатор кодека                     : V_MPEG4/ISO/AVC
Продолжительность                        : 2 ч. 2 м.
Битрейт                                  : 7683 Кбит/сек
Ширина                                   : 1920 пикселей
Высота                                   : 804 пикселя
Соотношение сторон                       : 2,40:1
Режим частоты кадров                     : Постоянный
Частота кадров                           : 25,000 кадров/сек
Цветовое пространство                    : YUV
Субдискретизация насыщенности            : 4:2:0
Битовая глубина                          : 8 бит
Тип развёртки                            : Прогрессивная
Бит/(Пиксели*Кадры)                      : 0.199
Размер потока                            : 6,56 Гбайт (78%)
Заголовок                                : -=Release for torrents45.xyz=-
Библиотека кодирования                   : x264 core 98 r1649 20cbe10
Настройки программы                      : cabac=1 / ref=5 / deblock=1:-3:-3 / analyse=0x3:0x113 / me=umh / subme=9 / psy=1 / psy_rd=1.00:0.20 / mixed_ref=1 / me_range=24 / chroma_me=1 / trellis=2 / 8x8dct=1 / cqm=0 / deadzone=21,11 / fast_pskip=1 / chroma_qp_offset=-3 / threads=12 / sliced_threads=0 / nr=0 / decimate=0 / interlaced=0 / constrained_intra=0 / bframes=7 / b_pyramid=2 / b_adapt=1 / b_bias=0 / direct=3 / weightb=1 / weightp=2 / keyint=250 / keyint_min=25 / scenecut=40 / intra_refresh=0 / rc_lookahead=40 / rc=crf / mbtree=1 / crf=18.0 / qcomp=0.70 / qpmin=10 / qpmax=51 / qpstep=4 / ip_ratio=1.40 / aq=1:1.00
Язык                                     : English
Default                                  : Нет
Forced                                   : Нет

Аудио #1
Идентификатор                            : 2
Формат                                   : DTS
Формат/Информация                        : Digital Theater Systems
Режим                                    : 16
Параметр Endianness формата              : Big
Идентификатор кодека                     : A_DTS
Продолжительность                        : 2 ч. 2 м.
Вид битрейта                             : Постоянный
Битрейт                                  : 1509 Кбит/сек
Каналы                                   : 6 каналов
Расположение каналов                     : Front: L C R, Side: L R, LFE
Частота                                  : 48,0 КГц
Битовая глубина                          : 16 бит
Метод сжатия                             : С потерями
Размер потока                            : 1,29 Гбайт (15%)
Заголовок                                : DTS.1509.Kbps (6ch) Russian
Язык                                     : Russian
Default                                  : Да
Forced                                   : Нет

Аудио #2
Идентификатор                            : 3
Формат                                   : AC-3
Формат/Информация                        : Audio Coding 3
Расширение режима                        : CM (complete main)
Параметр Endianness формата              : Big
Идентификатор кодека                     : A_AC3
Продолжительность                        : 2 ч. 2 м.
Вид битрейта                             : Постоянный
Битрейт                                  : 448 Кбит/сек
Каналы                                   : 6 каналов
Расположение каналов                     : Front: L C R, Side: L R, LFE
Частота                                  : 48,0 КГц
Битовая глубина                          : 16 бит
Метод сжатия                             : С потерями
Размер потока                            : 392 Мбайт (5%)
Заголовок                                : AC3.448.Kbps (6ch) English
Язык                                     : English
Default                                  : Нет
Forced                                   : Нет

Меню
00:00:00.000                             : en:Chapter 00
00:06:13.040                             : en:Chapter 01
00:10:52.360                             : en:Chapter 02
00:17:03.400                             : en:Chapter 03
00:22:54.600                             : en:Chapter 04
00:31:04.240                             : en:Chapter 05
00:40:54.600                             : en:Chapter 06
00:52:28.200                             : en:Chapter 07
00:58:19.880                             : en:Chapter 08
01:10:12.280                             : en:Chapter 09
01:17:41.160                             : en:Chapter 10
01:21:07.360                             : en:Chapter 11
01:26:07.680                             : en:Chapter 12
01:34:16.440                             : en:Chapter 13
01:43:02.400                             : en:Chapter 14
01:52:25.680                             : en:Chapter 15

x264 iNFO

x264 [info]: profile High, level 4.1
x264 [info]: frame I:2389 Avg QP:14.11 size:196628
x264 [info]: frame P:80057 Avg QP:16.83 size: 63163
x264 [info]: frame B:100964 Avg QP:18.11 size: 16808
x264 [info]: consecutive B-frames: 16.8% 30.7% 10.7% 12.9% 19.4% 5.5% 0.3% 3.7%
Скриншоты:









Все релизы Джобс: Империя соблазна на Torrents45.xyz

Смотреть Online

Детали торрента:
Название:Джобс: Империя соблазна / jOBS (2013) BDRip [1080p]
Дата добавления:03 Ноя 2013 22:30:09
Размер:8,4 GB
Раздают:2
Качают:0
Форум:Зарубежные Фильмы (HD, UHD-LQ)

All rights reserved © 2015-2019