TORRENTS45.XYZ

Скачать Университет монстров / Monsters University (2013) BDRip [1080p] [MVO]


Университет монстров / Monsters University (2013) BDRip [1080p]
Год выпуска: 2013
Производство: США, Pixar Animation Studios, Walt Disney Pictures
Жанр: Фэнтези, Комедия, Приключения
Перевод: Многоголосый закадровый
Субтитры: Отсутствуют

Дата мировой премьеры: 8 июня 2013
Дата российской премьеры: 20 июня 2013, «WDSSPR» 3D
Дата выхода DVD релиза: 5 ноября 2013, «Уолт Дисней Компани СНГ»

Режиссер: Дэн Скэнлон
Продюсер: Кори Рэй, Джон Лассетер
Актеры: Джон Гудмен, Билли Кристал, Стив Бушеми, Джоэль Мюррей, Кен Жонг, Джон Ратценбергер, Келси Грэммер, Роб Риггл, Фрэнк Оз, Дэйв Фоли

Описание:
Майк и Салли — самые опытные пугатели в Монстрополисе, но так было далеко не всегда. Когда они встретились впервые,
эти совершенно непохожие друг на друга монстры терпеть друг друга не могли. «Университет Монстров» — история о том,
как наши старые знакомые прошли путь от взаимной неприязни к крепкой дружбе.



Продолжительность: 01:43:47
Качество видео: BDRip [1080p]

Видеокодек: MPEG-4 AVC/H.264
Битрейт видео: 8360 kbps
Размер кадра: 1920x1080
Аудио#1: 48 kHz, AC3, 3/2 (L,C,R,l,r) + LFE ch, 384.00 kbps avg (Русский)
Аудио#2: 48 kHz, AC3, 3/2 (L,C,R,l,r) + LFE ch, 640.00 kbps avg (Английский) / Оригинал

MI

Код: выделить все
Общее
Уникальный идентификатор                 : 233006575181606494354395249214160209849 (0xAF4B6F1D1F945B0B98583BD6E6CD87B9)
Полное имя                               : D:\Раздачи\Universitet.monstrov.2013.BDRip.1080p.torrents45.xyzv
Формат                                   : Matroska
Версия формата                           : Version 2
Размер файла                             : 6,81 Гбайт
Продолжительность                        : 1 ч. 43 м.
Общий поток                              : 9391 Кбит/сек
Дата кодирования                         : UTC 2013-10-11 15:29:04
Программа кодирования                    : mkvmerge v6.3.0 ('You can't stop me!') built on Jun 28 2013 20:09:41
Библиотека кодирования                   : libebml v1.3.0 + libmatroska v1.4.0

Видео
Идентификатор                            : 1
Формат                                   : AVC
Формат/Информация                        : Advanced Video Codec
Профиль формата                          : High@L4.1
Параметр CABAC формата                   : Да
Параметр ReFrames формата                : 4 кадра
Идентификатор кодека                     : V_MPEG4/ISO/AVC
Продолжительность                        : 1 ч. 43 м.
Битрейт                                  : 8360 Кбит/сек
Ширина                                   : 1920 пикселей
Высота                                   : 1080 пикселей
Соотношение сторон                       : 16:9
Режим частоты кадров                     : Постоянный
Частота кадров                           : 23,976 кадра/сек
Цветовое пространство                    : YUV
Субдискретизация насыщенности            : 4:2:0
Битовая глубина                          : 8 бит
Тип развёртки                            : Прогрессивная
Бит/(Пиксели*Кадры)                      : 0.168
Размер потока                            : 5,93 Гбайт (87%)
Заголовок                                : Monsters.University.2013
Библиотека кодирования                   : x264 core 138 r2356 a1d3d17
Настройки программы                      : cabac=1 / ref=4 / deblock=1:-3:-3 / analyse=0x3:0x113 / me=umh / subme=10 / psy=1 / psy_rd=1.00:0.05 / mixed_ref=1 / me_range=32 / chroma_me=1 / trellis=2 / 8x8dct=1 / cqm=0 / deadzone=21,11 / fast_pskip=0 / chroma_qp_offset=-2 / threads=18 / lookahead_threads=1 / sliced_threads=0 / nr=0 / decimate=1 / interlaced=0 / bluray_compat=0 / constrained_intra=0 / bframes=5 / b_pyramid=2 / b_adapt=2 / b_bias=0 / direct=3 / weightb=1 / open_gop=0 / weightp=2 / keyint=250 / keyint_min=23 / scenecut=40 / intra_refresh=0 / rc=2pass / mbtree=0 / bitrate=8360 / ratetol=1.0 / qcomp=0.70 / qpmin=0 / qpmax=69 / qpstep=4 / cplxblur=20.0 / qblur=0.5 / ip_ratio=1.40 / pb_ratio=1.30 / aq=2:1.00
Язык                                     : English
Default                                  : Да
Forced                                   : Нет

Аудио #1
Идентификатор                            : 2
Формат                                   : AC-3
Формат/Информация                        : Audio Coding 3
Расширение режима                        : CM (complete main)
Параметр Endianness формата              : Big
Идентификатор кодека                     : A_AC3
Продолжительность                        : 1 ч. 43 м.
Вид битрейта                             : Постоянный
Битрейт                                  : 384 Кбит/сек
Каналы                                   : 6 каналов
Расположение каналов                     : Front: L C R, Side: L R, LFE
Частота                                  : 48,0 КГц
Битовая глубина                          : 16 бит
Метод сжатия                             : С потерями
Размер потока                            : 285 Мбайт (4%)
Язык                                     : Russian
Default                                  : Да
Forced                                   : Нет

Аудио #2
Идентификатор                            : 3
Формат                                   : AC-3
Формат/Информация                        : Audio Coding 3
Расширение режима                        : CM (complete main)
Параметр Endianness формата              : Big
Идентификатор кодека                     : A_AC3
Продолжительность                        : 1 ч. 43 м.
Вид битрейта                             : Постоянный
Битрейт                                  : 640 Кбит/сек
Каналы                                   : 6 каналов
Расположение каналов                     : Front: L C R, Side: L R, LFE
Частота                                  : 48,0 КГц
Битовая глубина                          : 16 бит
Метод сжатия                             : С потерями
Размер потока                            : 475 Мбайт (7%)
Заголовок                                : DD5.1 640K ENG
Язык                                     : English
Default                                  : Нет
Forced                                   : Нет
Скриншоты:


Университет монстров на Torrents45.xyz

Смотреть Online

http://moonwalk.cc/video/7ba0b6fe170a241edbaa100935bacbbe/iframe
Детали торрента:
Название:Университет монстров / Monsters University (2013) BDRip [1080p] [MVO]
Дата добавления:11 Окт 2013 19:35:18
Размер:6,81 GB
Раздают:8
Качают:0
Форум:Зарубежные Мультфильмы (HD, UHD, UHD-LQ)

All rights reserved © 2015-2018