TORRENTS45.XYZ

Скачать Converter - Blast Furnace (Box Set 2 CD) [Ant-Zen] (2000) [FLAC|Lossless]<Rhythmic Noise, Industrial>


Converter Blast Furnace
Год: 2000
Лейбл: Ant-Zen
Каталог: act 113.1
Жанр: Rhythmic Noise, Industrial
Продолжительность: 01:09:54 + 00:20:46

Кодек: FLAC
Битрейт: Lossless
Тип рипа: image + .cue

Треклист:

Blast Furnace

1-01. Error (7:40)
1-02. Blast Furnace (3:27)
1-03. Be Broken (6:51)
1-04. Flower (5:47)
1-05. Death Time (8:00)
1-06. Resolution (8:22)
1-07. Red Crystal (4:55)
1-08. Unreal (7:10)
1-09. Dust (8:23)
1-10. Itami (Two) (4:01)
1-11. Down Here (4:54)

Broken Meat

2-01. No More Meat (5:19)
2-02. Be Broken (Illdub Remix) (5:53) Remix - Synapscape
2-03. Conqueror (Live) (3:47)
2-04. Denogginizer (Live) (5:47)

Отчёт ЕАС:

Код:

Exact Audio Copy V0.99 prebeta 4 from 23. January 2008

Отчёт EAC об извлечении, выполненном 9. мая 2008, 2:12

Converter / Blast Furnace

Дисковод: _NEC    DVD_RW ND-3550A   Adapter: 0  ID: 0

Режим чтения                 : Достоверность
Использование точного потока : Да
Отключение кэша аудио        : Да
Использование указателей C2  : Нет

Коррекция смещения при чтении                     : 48
Способность читать области Lead-in и Lead-out     : Да
Заполнение пропущенных сэмплов тишиной            : Да
Удаление блоков с тишиной в начале и конце        : Нет
При вычислениях CRC использовались нулевые сэмплы : Нет
Интерфейс                                         : Встроенный Win32-интерфейс для Win NT/2000

Выходной формат          : Пользовательский кодировщик
Выбранный битрейт        : 768 kBit/s
Качество                 : Высокий
Добавление ID3-тэга      : Нет
Утилита сжатия           : D:\Programs\Tools\_Exact Audio Copy\FLAC\FLAC.EXE
Дополнительные параметры : -6 -V -T "ARTIST=%a" -T "TITLE=%t" -T "ALBUM=%g" -T "DATE=%y" -T "TRACKNUMBER=%n" -T "GENRE=%m" -T "COMMENT=%e" %s -o %d

TOC извлечённого CD

     Трек |   Старт  | Длительность | Начальный сектор | Конечный сектор
    ---------------------------------------------------------------------
       1  |  0:00.00 |    7:42.12   |           0      |      34661
       2  |  7:42.12 |    3:29.28   |       34662      |      50364
       3  | 11:11.40 |    6:53.27   |       50365      |      81366
       4  | 18:04.67 |    5:49.09   |       81367      |     107550
       5  | 23:54.01 |    8:02.36   |      107551      |     143736
       6  | 31:56.37 |    8:24.01   |      143737      |     181537
       7  | 40:20.38 |    4:57.34   |      181538      |     203846
       8  | 45:17.72 |    7:12.39   |      203847      |     236285
       9  | 52:30.36 |    8:25.11   |      236286      |     274171
      10  | 60:55.47 |    4:03.39   |      274172      |     292435
      11  | 64:59.11 |    4:54.33   |      292436      |     314518

Характеристики диапазона извлечения и сообщения об ошибках

Выбранный диапазон

     Имя файла G:\Converter - Blast Furnace\Blast Furnace.wav

     Пиковый уровень 96.5 %
     Качество диапазона 100.0 %
     CRC копии 55BA3AB8
     Копирование... OK

Ошибок не произошло

Конец отчёта

AccurateRip: сводка

Трек  1  точное извлечение (доверие 5)  [51571AD9]
Трек  2  точное извлечение (доверие 5)  [2ABB864D]
Трек  3  точное извлечение (доверие 5)  [F2DA050A]
Трек  4  точное извлечение (доверие 5)  [87DD4A9A]
Трек  5  точное извлечение (доверие 5)  [4D0AA0C5]
Трек  6  точное извлечение (доверие 5)  [2F816CF5]
Трек  7  точное извлечение (доверие 5)  [88C71E8F]
Трек  8  точное извлечение (доверие 5)  [CABDCD01]
Трек  9  точное извлечение (доверие 5)  [20FA2DA2]
Трек 10  точное извлечение (доверие 5)  [A9413059]
Трек 11  точное извлечение (доверие 5)  [4248709D]

 11 трек(и) скопированы точно

Конец отчёта

___________________________________________________

Exact Audio Copy V0.99 prebeta 4 from 23. January 2008

Отчёт EAC об извлечении, выполненном 30. июня 2008, 10:52

Converter / Broken Meat 3''

Дисковод: _NEC    DVD_RW ND-3550A   Adapter: 0  ID: 0

Режим чтения                 : Достоверность
Использование точного потока : Да
Отключение кэша аудио        : Да
Использование указателей C2  : Нет

Коррекция смещения при чтении                     : 48
Способность читать области Lead-in и Lead-out     : Нет
Заполнение пропущенных сэмплов тишиной            : Да
Удаление блоков с тишиной в начале и конце        : Нет
При вычислениях CRC использовались нулевые сэмплы : Да
Интерфейс                                         : Встроенный Win32-интерфейс для Win NT/2000

Выходной формат          : Пользовательский кодировщик
Выбранный битрейт        : 1024 kBit/s
Качество                 : Высокий
Добавление ID3-тэга      : Нет
Утилита сжатия           : D:\Programs\Tools\_Exact Audio Copy\FLAC\FLAC.EXE
Дополнительные параметры : -8 -V -T "ARTIST=%a" -T "TITLE=%g" -T "ALBUM=%g" -T "DATE=%y" -T "GENRE=%m" -T "COMMENT=%e" %s -o %d

TOC извлечённого CD

     Трек |   Старт  | Длительность | Начальный сектор | Конечный сектор
    ---------------------------------------------------------------------
       1  |  0:00.00 |    5:19.70   |           0      |      23994
       2  |  5:19.70 |    5:52.48   |       23995      |      50442
       3  | 11:12.43 |    3:47.23   |       50443      |      67490
       4  | 14:59.66 |    5:46.40   |       67491      |      93480

Характеристики диапазона извлечения и сообщения об ошибках

Выбранный диапазон

     Имя файла G:\Converter - Blast Furnace\Broken Meat 3''.wav

     Пиковый уровень 96.5 %
     Качество диапазона 100.0 %
     CRC теста C26DC9FE
     CRC копии C26DC9FE
     Копирование... OK

Ошибок не произошло

AccurateRip: сводка

Трек  1  точное извлечение (доверие 3)  [3FDC223B]
Трек  2  точное извлечение (доверие 3)  [EED6C6EA]
Трек  3  точное извлечение (доверие 3)  [A7DCDAB9]
Трек  4  точное извлечение (доверие 3)  [1E0CA687]

Все треки извлечены точно

Конец отчёта

Отчёт auCDtect Task manager:

Код:

-----------------------

DON'T MODIFY THIS FILE

-----------------------

PERFORMER: auCDtect Task Manager, ver. 1.5.1RC6 build 1.5.1.7
Copyright (c) 2008-2010 y-soft. All rights reserved
http://y-soft.org

ANALYZER: auCDtect: CD records authenticity detector, version 0.8.2
Copyright (c) 2004 Oleg Berngardt. All rights reserved.
Copyright (c) 2004 Alexander Djourik. All rights reserved.

FILE: Blast Furnace.flac
  Size: 527892527 Hash: CA315746B906B154EA8A14F6A6FAC616 Accuracy: -m0
  Conclusion: CDDA 99%
  Signature: C94BC89931F1A830BB4687D756138349AAF9F791

____________________________________________________________________

-----------------------

DON'T MODIFY THIS FILE

-----------------------

PERFORMER: auCDtect Task Manager, ver. 1.5.1RC6 build 1.5.1.7
Copyright (c) 2008-2010 y-soft. All rights reserved
http://y-soft.org

ANALYZER: auCDtect: CD records authenticity detector, version 0.8.2
Copyright (c) 2004 Oleg Berngardt. All rights reserved.
Copyright (c) 2004 Alexander Djourik. All rights reserved.

FILE: Broken Meat 3''.flac
  Size: 156854120 Hash: 26137E6666BC118DC88F428EB4C1C050 Accuracy: -m0
  Conclusion: CDDA 99%
  Signature: A4132BEE8EAF17090B266B427790ECFC1408FEC5

Discogs


Детали торрента:
Название:Converter - Blast Furnace (Box Set 2 CD) [Ant-Zen] (2000) [FLAC|Lossless]<Rhythmic Noise, Industrial>
Дата добавления:28 Сен 2013 01:00:08
Размер:706 MB
Раздают:1
Качают:0
Форум:Experimental, Industrial, EBM, Dark Electro (Lossless)

All rights reserved © 2015-2019