TORRENTS45.XYZ

Скачать Mimi - Soak (1998) [FLAC|Lossless]<Alternative, Indie, Electronic>


Mimi - Soak (1998)

Год: 12 May 1998 | Жанр: Alternative, Indie, Electronic | Лэйбл: Warner Bros. Records ‎[9362-46651-2] | Формат: CD, Album
Аудио Кодек: FLAC | Аудио Битрейт: Lossless | Тип Рипа: Image+.cue+.log | Наличие Сканов: Full | Происхождение Рипа: Internet

Продолжительность: 00:58:42

Трек лист:
01. Piece of Cake :: 04:52
02. Fire and Roses :: 05:19
03. Clues of You :: 05:06
04. I Spy :: 03:56
05. Thrilled to Pieces :: 04:17
06. Believer :: 04:31
07. The Watch :: 06:12
08. Milky Way :: 04:08
09. Black Hole Sun :: 03:32
10. Love Is an Island, Time to Go Home Now :: 16:45

Отчёт EAC:

Код:
Exact Audio Copy V1.0 beta 3 from 29. August 2011

Отчёт EAC об извлечении, выполненном 21. августа 2013, 15:28

Mimi / Soak

Дисковод: PLEXTOR DVDR   PX-810SA   Adapter: 2  ID: 1

Режим чтения                 : Достоверность
Использование точного потока : Да
Отключение кэша аудио        : Да
Использование указателей C2  : Нет

Коррекция смещения при чтении                     : 48
Способность читать области Lead-in и Lead-out     : Нет
Заполнение пропущенных сэмплов тишиной            : Да
Удаление блоков с тишиной в начале и конце        : Нет
При вычислениях CRC использовались нулевые сэмплы : Да
Интерфейс                                         : Установленный внешний ASPI-интерфейс

Выходной формат          : Пользовательский кодировщик
Выбранный битрейт        : 32 kBit/s
Качество                 : Низкий
Добавление ID3-тега      : Нет
Утилита сжатия           : C:\Program Files\Exact Audio Copy\Flac\flac.exe
Дополнительные параметры : -8 -V -T "ARTIST=%artist%" -T "ALBUM=%albumtitle%" -T "DATE=%year%" -T "GENRE=%genre%" -T "COMMENT=EAC FLAC -8" %source%

TOC извлечённого CD

     Трек |   Старт  | Длительность | Начальный сектор | Конечный сектор
    ---------------------------------------------------------------------
       1  |  0:00.32 |    4:52.13   |          32      |      21944
       2  |  4:52.45 |    5:19.55   |       21945      |      45924
       3  | 10:12.25 |    5:06.10   |       45925      |      68884
       4  | 15:18.35 |    3:56.22   |       68885      |      86606
       5  | 19:14.57 |    4:17.10   |       86607      |     105891
       6  | 23:31.67 |    4:31.35   |      105892      |     126251
       7  | 28:03.27 |    6:12.18   |      126252      |     154169
       8  | 34:15.45 |    4:08.67   |      154170      |     172836
       9  | 38:24.37 |    3:32.23   |      172837      |     188759
      10  | 41:56.60 |   16:45.57   |      188760      |     264191

Характеристики диапазона извлечения и сообщения об ошибках

Выбранный диапазон

     Имя файла E:\Muzons\Mimi - Soak (1998)\Mimi - Soak.wav

     Пиковый уровень 99.8 %
     Скорость извлечения 5.8 X
     Качество диапазона 99.9 %
     CRC теста E8DA25E2
     CRC копии E8DA25E2
     Копирование... OK

Ошибок не произошло

AccurateRip: сводка

Трек  1  : извлечено точно (доверие 2)  [D68B510E]  (AR v2)
Трек  2  : извлечено точно (доверие 2)  [884F9607]  (AR v2)
Трек  3  : извлечено точно (доверие 2)  [124747D6]  (AR v2)
Трек  4  : извлечено точно (доверие 2)  [6D7058A3]  (AR v2)
Трек  5  : извлечено точно (доверие 2)  [06C4B85C]  (AR v2)
Трек  6  : извлечено точно (доверие 2)  [35871447]  (AR v2)
Трек  7  : извлечено точно (доверие 2)  [3C7B64EA]  (AR v2)
Трек  8  : извлечено точно (доверие 2)  [1A3BA1B8]  (AR v2)
Трек  9  : извлечено точно (доверие 2)  [D933E0A5]  (AR v2)
Трек 10  : извлечено точно (доверие 2)  [D651FD6B]  (AR v2)

Все треки извлечены точно

Конец отчёта

==== Контрольная сумма отчёта 021DCECC07237A1B2753C87A10D1088BA6A07FA1D25672F4BAC51922A7BA7460 ====

Отчёт auCDtect Task Manager:

Код:
-----------------------

DON'T MODIFY THIS FILE

-----------------------

PERFORMER: auCDtect Task Manager, ver. 1.6.0 RC1 build 1.6.0.1
Copyright (c) 2008-2010 y-soft. All rights reserved
http://y-soft.org

ANALYZER: auCDtect: CD records authenticity detector, version 0.8.2
Copyright (c) 2004 Oleg Berngardt. All rights reserved.
Copyright (c) 2004 Alexander Djourik. All rights reserved.

FILE: Mimi - Soak.flac
  Size: 316131208 Hash: 7D6EFF256A2E485E146E945934595A2E Accuracy: -m0
  Conclusion: CDDA 100%
  Signature: 56118DA023741F8C79433BD6CD7EE644167C433A

Содержание CUE:

Код:
REM GENRE Electronica
REM DATE 1998
REM DISCID 7A0DC20A
REM COMMENT "ExactAudioCopy v1.0b3"
CATALOG 0075994665122
PERFORMER "Mimi"
TITLE "Soak"
FILE "Mimi - Soak.flac" WAVE
  TRACK 01 AUDIO
    TITLE "Piece of Cake"
    PERFORMER "Mimi"
    ISRC USWB19800055
    INDEX 00 00:00:00
    INDEX 01 00:00:32
  TRACK 02 AUDIO
    TITLE "Fire and Roses"
    PERFORMER "Mimi"
    ISRC USWB19800056
    INDEX 01 04:52:45
  TRACK 03 AUDIO
    TITLE "Clues of You"
    PERFORMER "Mimi"
    ISRC USWB19800057
    INDEX 01 10:12:25
  TRACK 04 AUDIO
    TITLE "I Spy"
    PERFORMER "Mimi"
    ISRC USWB19800058
    INDEX 01 15:18:35
  TRACK 05 AUDIO
    TITLE "Thrilled to Pieces"
    PERFORMER "Mimi"
    ISRC USWB19800059
    INDEX 01 19:14:57
  TRACK 06 AUDIO
    TITLE "Believer"
    PERFORMER "Mimi"
    ISRC USWB19800060
    INDEX 00 23:28:08
    INDEX 01 23:31:67
  TRACK 07 AUDIO
    TITLE "The Watch"
    PERFORMER "Mimi"
    ISRC USWB19800061
    INDEX 01 28:03:27
  TRACK 08 AUDIO
    TITLE "Milky Way"
    PERFORMER "Mimi"
    ISRC USWB19800062
    INDEX 01 34:15:45
  TRACK 09 AUDIO
    TITLE "Black Hole Sun"
    PERFORMER "Mimi"
    ISRC USWB19800063
    INDEX 01 38:24:37
  TRACK 10 AUDIO
    TITLE "Love Is an Island, Time to Go Home Now"
    PERFORMER "Mimi"
    ISRC USWB19800065
    INDEX 01 41:56:60


Youtube:

Доп.инфо:

Art Direction, Design – Sagmeister Inc.
Bass Guitar – Daniel Yvinec (tracks: 1, 5, 8)
Executive-Producer – David Byrne, Yale Evelev
Guitar [Guitars] – Hahn Rowe (tracks: 1, 4, 8)
Instruments [All] – Hahn Rowe (tracks: 2, 3, 6, 9 to 10.2)
Management – David Whitehead
Mastered By – Ted Jensen
Mixed By [Barrio Chino, Sweetfish Recording] – Hahn Rowe (tracks: 2, 3, 6, 7, 9 to 10.2)
Mixed By [Caraïbe] – Gilles Martin (tracks: 1, 4, 5, 8)
Performer [Sound And Rhythms] – Hector Zazou (tracks: 1, 4, 5, 8)
Photography By [Mimi] – Joseph Cultice
Producer – Hahn Rowe (tracks: 2, 3, 6, 7, 9 to 10.2), Hector Zazou (tracks: 1, 4, 5, 8)
Recorded By [Barrio Chino] – Hahn Rowe (tracks: 2, 3, 6, 7, 9 to 10.2)
Recorded By [Taklab, Nectar Room] – Alexi Mauri (tracks: 1, 4, 5, 8), Hector Zazou (tracks: 1, 4, 5, 8)
Vocals – Mimi Goese
Written-By – Hahn Rowe (tracks: 1 to 8, 10.1), Mimi Goese (tracks: 1 to 8, 10.1)
+++
Mimi Goese - Tasty Fish Music (BMI)
Hahn Rowe - Polimorfos Music (BMI)
Mark Mulcahy - Paymarx Music (BMI)
Samm Bennett - Directional Music (BMI)
Tony Maimone - (BMI)
Rich Panciera - Blumolis (BMI)
Arthur Russell - Echo And Feedback Newsletter Music (ASCAP)


Track 1, 4, 5 and 8 recorded at Taklab and Nectar Room in France, and at Barrio Chino in New York. Mixed at Caraibe in Belgium.
Track 2, 3, 6, 7 and 9 to 10.2 recorded and mixed at Barrio Chino in New York.
Track 7 recorded at Excello Recording Studios in New York. Mixed at Sweetfish Recording.
Mastered at Sterling Sound in New York.
Luaka Bop, Inc.
Manufactured and distributed by Warner Bros. Records Inc., a Time Warner Company
(с) & (p) 1998 Warner Bros. Records Inc. for the U.S. and WEA International Inc. for the world outside the U.S.
Made in Germany by Warner Music Manufacturing Europe

____________

Track 10.2 starts at 11:10, after 6:26 of silence.
Packaging: clear tray jewel case with foldout 10 page booklet.




Детали торрента:
Название:Mimi - Soak (1998) [FLAC|Lossless]<Alternative, Indie, Electronic>
Дата добавления:05 Сен 2013 11:25:56
Размер:315 MB
Раздают:1
Качают:0
Форум:Experimental, Industrial, EBM, Dark Electro (Lossless)

All rights reserved © 2015-2019