TORRENTS45.XYZ

Скачать Особо важное задание (2 серии) (1980) DVDRip


Особо важное задание (2 серии) (1980) DVDRip
Русское название: Особо важное задание
Год выпуска: 1980
Жанр: Драма, военный

Описание фильма: 1940 год. Одному из авиационных заводов поручается в чрезвычайно сжатые сроки наладить выпуск штурмовика ИЛ-2. Выпустив с конвейера первый самолет, начальник производства Кириллов отправляется с женой в Крым. Здесь их и застает война... Вернувшись домой, они узнают, что завод получил задание эвакуировать кадры и все оборудование за Волгу, а там, ни на минуту не останавливая производство самолетов, буквально на пустом месте построить новый завод...

Первый фильм, которому была устроена Всесоюзная премьера.
Прообразом для сюжета фильма стал авиационный завод № 18, эвакуированный в 1941 из Воронежа в Куйбышев и там в кратчайшие сроки развернувший серийный выпуск штурмовиков Ил-2.

Режиссер: Евгений Матвеев
Актеры: Евгений Матвеев, Валерия Заклунная, Людмила Гурченко, Николай Крючков, Владимир Самойлов, Петр Чернов, Геннадий Юхтин, Евгений Киндинов, Евгений Лазарев, Лев Борисов, Александр Парра, Фархад Исраилов, Олег Измайлов, Светлана Коновалова, Сергей Иванов

Продолжительность: 01:04:30 + 01:05:53



Видеокодек: DivX 5
Битрейт видео: ~1469 kbps
Размер кадра: 656x496
Качество видео: DVDRip
Аудиокодек: MPEG Layer 3, 2 ch,
Битрейт аудио: ~128.00 kbps

MI

Общее
Полное имя : C:\Osobo_vazhnoe_zadanie\01_Osobo_vazhnoe_zadanie.avi
Формат : AVI
Формат/Информация : Audio Video Interleave
Размер файла : 741 Мбайт
Продолжительность : 1 ч. 4 м.
Общий поток : 1606 Кбит/сек
Программа кодирования : VirtualDubModRus 1.5.10.2 (build 2542/release)
Библиотека кодирования : VirtualDubMod build 2542/release

Видео
Идентификатор : 0
Формат : MPEG-4 Visual
Параметр BVOP формата : 1
Параметр QPel формата : Нет
Параметр GMC формата : Без точки перехода
Параметр матрицы формата : Default (H.263)
Режим смешивания : Сжатый битовый поток
Идентификатор кодека : DX50
Идентификатор кодека/Подсказка : DivX 5
Продолжительность : 1 ч. 4 м.
Битрейт : 1469 Кбит/сек
Ширина : 656 пикселей
Высота : 496 пикселей
Соотношение сторон : 4:3
Частота кадров : 25,000 кадров/сек
Цветовое пространство : YUV
Субдискретизация насыщенности : 4:2:0
Битовая глубина : 8 бит
Тип развёртки : Прогрессивная
Метод сжатия : С потерями
Бит/(Пиксели*Кадры) : 0.181
Размер потока : 678 Мбайт (91%)
Библиотека кодирования : DivX 6.8.3-6.8.4 (UTC 2008-06-07)

Аудио
Идентификатор : 1
Формат : MPEG Audio
Версия формата : Version 1
Профиль формата : Layer 3
Режим : Joint stereo
Расширение режима : MS Stereo
Идентификатор кодека : 55
Идентификатор кодека/Подсказка : MP3
Продолжительность : 1 ч. 4 м.
Вид битрейта : Постоянный
Битрейт : 128 Кбит/сек
Каналы : 2 канала
Частота : 48,0 КГц
Метод сжатия : С потерями
Размер потока : 59,1 Мбайт (8%)
Выравнивание : Соединение по промежуткам
Продолжительность промежутка : 40 мс. (1,00 видеокадр)
Время предзагрузки промежутка : 504 мс.
Библиотека кодирования : LAME3.97
Настройки программы : -m j -V 4 -q 2 -b 128

Общее
Полное имя : C:\Osobo_vazhnoe_zadanie\02_Osobo_vazhnoe_zadanie.avi
Формат : AVI
Формат/Информация : Audio Video Interleave
Размер файла : 757 Мбайт
Продолжительность : 1 ч. 5 м.
Общий поток : 1607 Кбит/сек
Программа кодирования : VirtualDubModRus 1.5.10.2 (build 2542/release)
Библиотека кодирования : VirtualDubMod build 2542/release

Видео
Идентификатор : 0
Формат : MPEG-4 Visual
Параметр BVOP формата : 1
Параметр QPel формата : Нет
Параметр GMC формата : Без точки перехода
Параметр матрицы формата : Default (H.263)
Режим смешивания : Сжатый битовый поток
Идентификатор кодека : DX50
Идентификатор кодека/Подсказка : DivX 5
Продолжительность : 1 ч. 5 м.
Битрейт : 1469 Кбит/сек
Ширина : 656 пикселей
Высота : 496 пикселей
Соотношение сторон : 4:3
Частота кадров : 25,000 кадров/сек
Цветовое пространство : YUV
Субдискретизация насыщенности : 4:2:0
Битовая глубина : 8 бит
Тип развёртки : Прогрессивная
Метод сжатия : С потерями
Бит/(Пиксели*Кадры) : 0.181
Размер потока : 692 Мбайт (91%)
Библиотека кодирования : DivX 6.8.3-6.8.4 (UTC 2008-06-07)

Аудио
Идентификатор : 1
Формат : MPEG Audio
Версия формата : Version 1
Профиль формата : Layer 3
Режим : Joint stereo
Расширение режима : MS Stereo
Идентификатор кодека : 55
Идентификатор кодека/Подсказка : MP3
Продолжительность : 1 ч. 5 м.
Вид битрейта : Постоянный
Битрейт : 128 Кбит/сек
Каналы : 2 канала
Частота : 48,0 КГц
Метод сжатия : С потерями
Размер потока : 60,3 Мбайт (8%)
Выравнивание : Соединение по промежуткам
Продолжительность промежутка : 40 мс. (1,00 видеокадр)
Время предзагрузки промежутка : 504 мс.
Библиотека кодирования : LAME3.97
Настройки программы : -m j -V 4 -q 2 -b 128
Скриншоты 1-я серия:

Скриншоты 2-я серия:


Детали торрента:
Название:Особо важное задание (2 серии) (1980) DVDRip
Дата добавления:13 Авг 2013 20:34:49
Размер:1,46 GB
Раздают:
Качают:0
Форум:Старые Отечественные Фильмы (HD*Rip/LQ, DVDRip, SATRip, VHSRip)

All rights reserved © 2015-2018