TORRENTS45.XYZ

Скачать Пираты! Банда неудачников / The Pirates! Band of Misfits (2012) BDRip [H.264] [UKR, ENG]


Пираты! Банда неудачников / The Pirates! Band of Misfits (2012) BDRip«Спасайся кто может»
Русское название: Пираты! Банда неудачников
Оригинальное название: The Pirates! Band of Misfits
Жанр: мультфильм, приключения, семейный

Год выпуска: 2012
Страна: США , Великобритания
Кинокомпания: Aardman Animations, Sony Pictures Animation

Перевод: Дублированный
Язык: украинский , английский

Описание:
Экранизация первой книги из серии романов писателя Гидеона Дефо, рассказывающих о банде незадачливых пиратов. В первой части пираты прибывают в Лондон, где знакомятся с молодым Чарльзом Дарвином и говорящим шимпанзе по имени Мистер Бобо, а также столкнутся с врагами, которые хотят их уничтожить.

Режиссер: Питер Лорд, Джефф Ньюитт
Сценарий: Гидеон Дефо
Композитор: Теодор Шапиро
Оператор: Чарльз Коппинг, Фрэнк Пэссингем
Продюсер: Питер Лорд, Дэвид Спрокстон, Джули Локхарт
Персонажы: Брендан Глисон, Джереми Пивен, Брайан Блессид, Адевале Акиннуойе-Агбадже, Сальма Хайек, Мартин Фриман, Хью Грант, Имелда Стонтон, Дэвид Теннант, Эшли Дженсен



Продолжительность: 01:28:05
Качество видео: BDRip

Видео: AVC, 1072x456 (2.35:1), 23.976 fps, 2 649 Kbps (0.226 bit/pixel)
Аудио #1: AC-3, 48.0 KHz, 6 ch, 448 Kbps, CBR (Ukrainian )
Аудио #2: AC-3, 48.0 KHz, 6 ch, 448 Kbps, CBR (English )

MediaInfo

E:\Ô³ëüìè\The Pirates! Band of Misfits (2012) BDRip-AVC [Ukr,Eng].mkv
General
Unique ID : 253354823599761041851917857842695501092 (0xBE9A5D37CAD29C5495A93E5C9637F524)
Complete name : E:\Ô³ëüìè\The Pirates! Band of Misfits (2012) BDRip-AVC [Ukr,Eng].mkv
Format : Matroska
Format version : Version 2
File size : 2.18 GiB
Duration : 1h 28mn
Overall bit rate : 3 547 Kbps
Encoded date : UTC 2012-08-13 06:57:38
Writing application : mkvmerge v5.6.0 ('Kenya Kane') built on May 27 2012 16:44:04
Writing library : libebml v1.2.3 + libmatroska v1.3.0
Video #1
ID : 1
Format : AVC
Format/Info : Advanced Video Codec
Format profile : High@L4.1
Format settings, CABAC : Yes
Format settings, ReFrames : 8 frames
Codec ID : V_MPEG4/ISO/AVC
Duration : 1h 28mn
Bit rate : 2 649 Kbps
Width : 1 072 pixels
Height : 456 pixels
Display aspect ratio : 2.35:1
Frame rate mode : Constant
Frame rate : 23.976 fps
Color space : YUV
Chroma subsampling : 4:2:0
Bit depth : 8 bits
Scan type : Progressive
Bits/(Pixel*Frame) : 0.226
Stream size : 1.59 GiB (73%)
Writing library : x264 core 116 r2019M 9cc407d
Encoding settings : cabac=1 / ref=9 / deblock=1:-1:-1 / analyse=0x3:0x133 / me=umh / subme=10 / psy=1 / psy_rd=1.10:0.10 / mixed_ref=1 / me_range=32 / chroma_me=1 / trellis=2 / 8x8dct=1 / cqm=0 / deadzone=21,11 / fast_pskip=0 / chroma_qp_offset=-3 / threads=8 / sliced_threads=0 / nr=0 / decimate=1 / interlaced=0 / bluray_compat=0 / constrained_intra=0 / bframes=10 / b_pyramid=1 / b_adapt=2 / b_bias=0 / direct=3 / weightb=1 / open_gop=0 / weightp=2 / keyint=240 / keyint_min=23 / scenecut=40 / intra_refresh=0 / rc_lookahead=100 / rc=2pass / mbtree=1 / bitrate=2649 / ratetol=1.0 / qcomp=0.70 / qpmin=10 / qpmax=51 / qpstep=4 / cplxblur=20.0 / qblur=0.5 / vbv_maxrate=20000 / vbv_bufsize=20000 / nal_hrd=none / ip_ratio=1.35 / aq=1:0.70
Default : Yes
Forced : No
Audio #2
ID : 2
Format : AC-3
Format/Info : Audio Coding 3
Mode extension : CM (complete main)
Format settings, Endianness : Big
Codec ID : A_AC3
Duration : 1h 28mn
Bit rate mode : Constant
Bit rate : 448 Kbps
Channel(s) : 6 channels
Channel positions : Front: L C R, Side: L R, LFE
Sampling rate : 48.0 KHz
Bit depth : 16 bits
Compression mode : Lossy
Stream size : 282 MiB (13%)
Language : Ukrainian
Default : Yes
Forced : No
Audio #3
ID : 3
Format : AC-3
Format/Info : Audio Coding 3
Mode extension : CM (complete main)
Format settings, Endianness : Big
Codec ID : A_AC3
Duration : 1h 28mn
Bit rate mode : Constant
Bit rate : 448 Kbps
Channel(s) : 6 channels
Channel positions : Front: L C R, Side: L R, LFE
Sampling rate : 48.0 KHz
Bit depth : 16 bits
Compression mode : Lossy
Stream size : 282 MiB (13%)
Language : English
Default : No
Forced : No

Скриншоты:




"Пираты! Банда неудачников" NoNaMe-Club

Смотреть Online

Детали торрента:
Название:Пираты! Банда неудачников / The Pirates! Band of Misfits (2012) BDRip [H.264] [UKR, ENG]
Дата добавления:04 Май 2013 14:39:32
Размер:2,18 GB
Раздают:
Качают:0
Форум:Зарубежные Мультфильмы (HD*Rip/LQ, DVDRip, SATRip, VHSRip)

All rights reserved © 2015-2019