TORRENTS45.XYZ

Скачать Claude Bolling - 3 альбома (1975-1984) [FLAC|Lossless]<Jazz Instrumental, Classical>


Claude Bolling - 3 альбома (1975-1984)
Год: 1975-1984
Жанр: Jazz Instrumental, Classical
Продолжительность: 02:22:02

Кодек: FLAC, APE
Битрейт: Lossless
Источник: Web

Клод Боллинг (Claude Bolling, род. 10.04.1930) - французский джазовый пианист, композитор, аранжировщик, актер. У этого музыканта репутация одного из самых именитых представителей французского джазового искусства. Он был вундеркиндом, и уже в 14 лет стал победитлем джазового конкурса. В том же году, он создал свой джазовый ансамбль. Он оказался востребован звездами американского джаза. В 1948 году молодой пианист записался с прославленным трубачом, музыкантом оркестра Дюка Эллингтона, Рексом Стюартом. Тремя годами позже он записался еще с одним знаменитым трубачем - Роем Элдриджем. И в 1953 и 1956 годах Болинг записывался еще с одной звездой американского джаза, виброфонистом Лайонелом Хэмптоном. У Боллинга целый ряд музыкальных ипостасей, в каждой из которых он ярок и силен. Это пианист, аранжировщик, бэнд-лидер и композитор, работающий далеко не только в сфере джаза. Достаточно сказать, что Болинг является автором музыки почти к сотне фильмов. Также он немало работал и для телевидения. Кроме того Боллинг был аранжировщиком и музыкальным руководителем целого ряда студийных проектов. Как пианист он формировался прежде всего под влиянием рэгтайма. Затем на него оказали влияние Эрл Хайнс, стиль би-боп и фортепианный стиль Дюка Эллингтона. Последний оказал влияние на Боллинга и как композитор. В 70-е годы Клод Боллинг создал биг-бэнд, с которым объездил практически весь мир и выступал с очень большим успехом.

1975. Concerto For Classic Guitar & Jazz Piano (1993)

Image

Издатель: Milan Entertainment S.A. de C.V. {74321 16081-2}
Страна изготовитель: Mexico
Кодек: FLAC
Формат: track+cue

Треклист:
01. Hispanic Dance (With a blue touch) [05:35]
02. Mexicaine [06:21]
03. Invention [04:07]
04. Serenade [04:47]
05. Rhapsodic [06:45]
06. Africaine [04:28]
07. Finale [05:52]

Продолжительность: 00:37:55

Отчёт ЕАС:

Код:

Exact Audio Copy V0.99 prebeta 3 from 28. July 2007

EAC extraction logfile from 14. February 2011, 18:13

Claude Bolling / Concerto for Classic Guitar and Jazz Piano

Used drive  : TOSHIBA DVD-ROM SD-R2512   Adapter: 1  ID: 0

Read mode               : Secure
Utilize accurate stream : Yes
Defeat audio cache      : Yes
Make use of C2 pointers : No

Read offset correction                      : 116
Overread into Lead-In and Lead-Out          : No
Fill up missing offset samples with silence : Yes
Delete leading and trailing silent blocks   : No
Null samples used in CRC calculations       : Yes
Used interface                              : Native Win32 interface for Win NT & 2000
Gap handling                                : Appended to previous track

Used output format              : User Defined Encoder
Selected bitrate                : 320 kBit/s
Quality                         : High
Add ID3 tag                     : No
Command line compressor         : C:\Program Files\Exact Audio Copy\Flac\flac.exe
Additional command line options : -V -8 -T "artist=%a" -T "title=%t" -T "album=%g" -T "date=%y" -T "tracknumber=%n" -T "genre=%m" %s

TOC of the extracted CD

     Track |   Start  |  Length  | Start sector | End sector
    ---------------------------------------------------------
        1  |  0:00.00 |  5:34.57 |         0    |    25106
        2  |  5:34.57 |  6:21.33 |     25107    |    53714
        3  | 11:56.15 |  4:06.70 |     53715    |    72234
        4  | 16:03.10 |  4:47.07 |     72235    |    93766
        5  | 20:50.17 |  6:44.38 |     93767    |   124104
        6  | 27:34.55 |  4:28.17 |    124105    |   144221
        7  | 32:02.72 |  5:52.13 |    144222    |   170634

Track  1

     Filename E:\Working Group\01 - Hispanic Dance (With a blues touch).wav

     Pre-gap length  0:00:02.00

     Peak level 98.0 %
     Track quality 100.0 %
     Test CRC 8886D29F
     Copy CRC 8886D29F
     Accurately ripped (confidence 2)  [7410A31B]
     Copy OK

Track  2

     Filename E:\Working Group\02 - Mexicaine.wav

     Peak level 99.5 %
     Track quality 100.0 %
     Test CRC 205CEE58
     Copy CRC 205CEE58
     Accurately ripped (confidence 2)  [197C0B64]
     Copy OK

Track  3

     Filename E:\Working Group\03 - Invention.wav

     Pre-gap length  0:00:03.05

     Peak level 96.8 %
     Track quality 100.0 %
     Test CRC 21649390
     Copy CRC 21649390
     Accurately ripped (confidence 2)  [B70CAD79]
     Copy OK

Track  4

     Filename E:\Working Group\04 - Serenade.wav

     Pre-gap length  0:00:04.63

     Peak level 93.1 %
     Track quality 100.0 %
     Test CRC 5AAFE0EF
     Copy CRC 5AAFE0EF
     Accurately ripped (confidence 2)  [72B04F7F]
     Copy OK

Track  5

     Filename E:\Working Group\05 - Rhapsodie.wav

     Pre-gap length  0:00:03.02

     Peak level 100.0 %
     Track quality 100.0 %
     Test CRC 12EDE252
     Copy CRC 12EDE252
     Accurately ripped (confidence 2)  [CF584698]
     Copy OK

Track  6

     Filename E:\Working Group\06 - Africaine.wav

     Pre-gap length  0:00:03.28

     Peak level 100.0 %
     Track quality 100.0 %
     Test CRC E8A62EAC
     Copy CRC E8A62EAC
     Accurately ripped (confidence 2)  [64D3BD21]
     Copy OK

Track  7

     Filename E:\Working Group\07 - Finale.wav

     Pre-gap length  0:00:03.47

     Peak level 64.2 %
     Track quality 100.0 %
     Test CRC 6570AC9A
     Copy CRC 6570AC9A
     Accurately ripped (confidence 2)  [55910C4E]
     Copy OK

All tracks accurately ripped

No errors occurred

End of status report

Отчёт auCDtect Task manager:

Код:

-----------------------

DON'T MODIFY THIS FILE

-----------------------

PERFORMER: auCDtect Task Manager, ver. 1.5.1RC6 build 1.5.1.7
Copyright (c) 2008-2010 y-soft. All rights reserved
http://y-soft.org

ANALYZER: auCDtect: CD records authenticity detector, version 0.8.2
Copyright (c) 2004 Oleg Berngardt. All rights reserved.
Copyright (c) 2004 Alexander Djourik. All rights reserved.

FILE: 07. Finale.flac
  Size: 30129210 Hash: 527AFC5DA67824E1B3C54176414810F9 Accuracy: -m0
  Conclusion: CDDA 99%
  Signature: 3F4A4FE123E54463F2086547DED4300F370DFEC8
FILE: 06. Africaine.flac
  Size: 23317312 Hash: 39D85548E65960DE786BBE44BC1EF173 Accuracy: -m0
  Conclusion: CDDA 100%
  Signature: E5261C1E771496B3C939DDB36F2F4F400E2667D7
FILE: 05. Rhapsodic.flac
  Size: 34322671 Hash: 6EFA70F3AB4DA8877348AA102A494EDC Accuracy: -m0
  Conclusion: CDDA 100%
  Signature: 536778764685A52FBAB53976A57F05C4C6B94A40
FILE: 04. Serenade.flac
  Size: 23854504 Hash: 06F28D1B3ED6A53BD6555E0755101015 Accuracy: -m0
  Conclusion: CDDA 100%
  Signature: 1E2054984E6DAE8866B99BFA0932BDE9DF371887
FILE: 03. Invention.flac
  Size: 21368979 Hash: C8A51DC4D4F324FCA32A4D63DC5088E8 Accuracy: -m0
  Conclusion: CDDA 100%
  Signature: 29386C09CF911C3F9F65ADB72B4819C7055EB565
FILE: 02. Mexicaine.flac
  Size: 29575945 Hash: B64ACDDE26D353897B24F16E20675DE2 Accuracy: -m0
  Conclusion: CDDA 100%
  Signature: F8F8E93EFD08E5DD498FB01077AE4DDFCE661D66
FILE: 01. Hispanic Dance (With a blue touch).flac
  Size: 29448882 Hash: AF1E5DB6782C2079736E08572B7AF430 Accuracy: -m0
  Conclusion: CDDA 87%
  Signature: CED9284CAA83DE3FA7CF2DBC9E84D01B2DCE319C

1975. Vintage Bolling (1995)

Image

Издатель: Milan Entertainment Inc. / BMG Music {7313875735-2}
Страна изготовитель: USA
Кодек: APE
Формат:image + cue

Треклист:
Suite For Flute and Jazz Piano Trio
01. Baroque and Blue [05:18]
02. Sentimentale [07:45]
03. Fugace [03:54]
Concerto For Guitar and Jazz Piano Trio
04. Hispanic Dance [05:35]
05. Mexicaine [06:21]
06. Africaine [04:26]
Suite For Violin and Jazz Piano Trio
07. Romance [06:15]
08. Gavotte [02:26]
09. Slavonic Dance [07:55]
Cross Over USA
10. Medley: Way Down Yonder In New Orleans
a)Do You Know What It Means
b)To Miss New... [05:43]
11. Back Home Again In Indiana [06:45]

Продолжительность: 01:02:23

Отчёт ЕАС:

Код:

Exact Audio Copy V0.99 prebeta 4 from 23. January 2008

EAC extraction logfile from 13. February 2009, 19:38

Claude Bolling / Vintage Bolling

Used drive  : SONY    DVD-ROM DDU1615   Adapter: 0  ID: 0

Read mode               : Secure
Utilize accurate stream : Yes
Defeat audio cache      : Yes
Make use of C2 pointers : No

Read offset correction                      : 6
Overread into Lead-In and Lead-Out          : No
Fill up missing offset samples with silence : Yes
Delete leading and trailing silent blocks   : No
Null samples used in CRC calculations       : Yes
Used interface                              : Installed external ASPI interface

Used output format : Monkey's Audio Lossless Encoder v3.99 DLL
Sample format      : High Lossless Compression

TOC of the extracted CD

     Track |   Start  |  Length  | Start sector | End sector
    ---------------------------------------------------------
        1  |  0:00.00 |  5:17.58 |         0    |    23832
        2  |  5:17.58 |  7:44.62 |     23833    |    58694
        3  | 13:02.45 |  3:54.25 |     58695    |    76269
        4  | 16:56.70 |  5:34.63 |     76270    |   101382
        5  | 22:31.58 |  6:21.02 |    101383    |   129959
        6  | 28:52.60 |  4:26.15 |    129960    |   149924
        7  | 33:19.00 |  6:14.68 |    149925    |   178042
        8  | 39:33.68 |  2:25.52 |    178043    |   188969
        9  | 41:59.45 |  7:55.10 |    188970    |   224604
       10  | 49:54.55 |  5:42.40 |    224605    |   250294
       11  | 55:37.20 |  6:45.23 |    250295    |   280692

Range status and errors

Selected range

     Filename E:\EAC\Claude Bolling - Vintage Bolling.ape

     Peak level 98.6 %
     Range quality 100.0 %
     Test CRC 0803A21D
     Copy CRC 0803A21D
     Copy OK

No errors occurred

AccurateRip summary

Track  1  accurately ripped (confidence 3)  [7E41B995]
Track  2  accurately ripped (confidence 3)  [25DB0E8C]
Track  3  accurately ripped (confidence 3)  [4D2B8E46]
Track  4  accurately ripped (confidence 3)  [2B1E76A1]
Track  5  accurately ripped (confidence 3)  [31EEE3CC]
Track  6  accurately ripped (confidence 3)  [B008137E]
Track  7  accurately ripped (confidence 3)  [48EFB4A1]
Track  8  accurately ripped (confidence 3)  [38B9F23D]
Track  9  accurately ripped (confidence 3)  [508F7D1F]
Track 10  accurately ripped (confidence 3)  [14A7992F]
Track 11  accurately ripped (confidence 3)  [942F6376]

All tracks accurately ripped

End of status report

Отчёт auCDtect Task manager:

Код:

-----------------------

DON'T MODIFY THIS FILE

-----------------------

PERFORMER: auCDtect Task Manager, ver. 1.5.1RC6 build 1.5.1.7
Copyright (c) 2008-2010 y-soft. All rights reserved
http://y-soft.org

ANALYZER: auCDtect: CD records authenticity detector, version 0.8.2
Copyright (c) 2004 Oleg Berngardt. All rights reserved.
Copyright (c) 2004 Alexander Djourik. All rights reserved.

FILE: Claude Bolling - Vintage Bolling.ape
  Size: 341801298 Hash: E3CD878722B9DD7A0D9DD548E1F14F7A Accuracy: -m0
  Conclusion: CDDA 100%
  Signature: 9F401E0AEE5CBBCAEF1C06579A10B603DCDB7D12

1984. Jazz A La Francaise

Image

Издатель: CBS Records {MK 39244}
Страна изготовитель: USA
Кодек: FLAC
Формат: track+cue

Треклист:
01. A La Francaise [09:37]
02. Garnerama [05:27]
03. Bach To Swing [05:00]
04. Etude In Blue [05:19]
05. Not This Time [05:44]
06. Blue Kiss From Brazil [07:15]
07. Fiancees En Folie [03:22]

Продолжительность: 00:41:44

Отчёт ЕАС:

Код:

Exact Audio Copy V0.99 prebeta 3 from 28. July 2007

EAC extraction logfile from 14. October 2010, 17:56

Claude Bolling / Jazz a la francaise

Used drive  : TOSHIBA DVD-ROM SD-R2512   Adapter: 1  ID: 0

Read mode               : Secure
Utilize accurate stream : Yes
Defeat audio cache      : Yes
Make use of C2 pointers : No

Read offset correction                      : 116
Overread into Lead-In and Lead-Out          : No
Fill up missing offset samples with silence : Yes
Delete leading and trailing silent blocks   : No
Null samples used in CRC calculations       : Yes
Used interface                              : Installed external ASPI interface
Gap handling                                : Appended to previous track

Used output format              : User Defined Encoder
Selected bitrate                : 320 kBit/s
Quality                         : High
Add ID3 tag                     : No
Command line compressor         : C:\Program Files\Exact Audio Copy\Flac\flac.exe
Additional command line options : -V -8 -T "artist=%a" -T "title=%t" -T "album=%g" -T "date=%y" -T "tracknumber=%n" -T "genre=%m" %s

TOC of the extracted CD

     Track |   Start  |  Length  | Start sector | End sector
    ---------------------------------------------------------
        1  |  0:00.00 |  9:37.27 |         0    |    43301
        2  |  9:37.27 |  5:26.70 |     43302    |    67821
        3  | 15:04.22 |  5:00.23 |     67822    |    90344
        4  | 20:04.45 |  5:18.65 |     90345    |   114259
        5  | 25:23.35 |  5:44.07 |    114260    |   140066
        6  | 31:07.42 |  7:15.08 |    140067    |   172699
        7  | 38:22.50 |  3:21.40 |    172700    |   187814

Track  1

     Filename E:\Working Group\01 - A la Francaise.wav

     Pre-gap length  0:00:02.00

     Peak level 86.9 %
     Track quality 100.0 %
     Test CRC 29655227
     Copy CRC 29655227
     Cannot be verified as accurate (confidence 3)  [B0AF4B22], AccurateRip returned [849F6334]
     Copy OK

Track  2

     Filename E:\Working Group\02 - Garnerama.wav

     Pre-gap length  0:00:01.07

     Peak level 56.7 %
     Track quality 100.0 %
     Test CRC A281E2B3
     Copy CRC A281E2B3
     Cannot be verified as accurate (confidence 3)  [3E378687], AccurateRip returned [DFDADCC7]
     Copy OK

Track  3

     Filename E:\Working Group\03 - Bach to Swing.wav

     Peak level 87.6 %
     Track quality 100.0 %
     Test CRC D1BA3393
     Copy CRC D1BA3393
     Cannot be verified as accurate (confidence 3)  [2B75017F], AccurateRip returned [7F61DA49]
     Copy OK

Track  4

     Filename E:\Working Group\04 - Etude in Blue.wav

     Pre-gap length  0:00:01.60

     Peak level 94.4 %
     Track quality 100.0 %
     Test CRC C655BA14
     Copy CRC C655BA14
     Cannot be verified as accurate (confidence 3)  [5F9D940B], AccurateRip returned [A70A5691]
     Copy OK

Track  5

     Filename E:\Working Group\05 - Not This Time.wav

     Pre-gap length  0:00:01.55

     Peak level 94.7 %
     Track quality 100.0 %
     Test CRC 9B0F39BF
     Copy CRC 9B0F39BF
     Cannot be verified as accurate (confidence 3)  [682FE525], AccurateRip returned [60A6AB30]
     Copy OK

Track  6

     Filename E:\Working Group\06 - Blue Kiss From Brazil.wav

     Peak level 94.6 %
     Track quality 100.0 %
     Test CRC FEE4C324
     Copy CRC FEE4C324
     Cannot be verified as accurate (confidence 3)  [B35BA3F4], AccurateRip returned [DA977C2A]
     Copy OK

Track  7

     Filename E:\Working Group\07 - Fiancees en folie.wav

     Peak level 94.0 %
     Track quality 100.0 %
     Test CRC 33BCFDDF
     Copy CRC 33BCFDDF
     Cannot be verified as accurate (confidence 3)  [BBDA276E], AccurateRip returned [F90CAFE5]
     Copy OK

No tracks could be verified as accurate
You may have a different pressing from the one(s) in the database

No errors occurred

End of status report

Отчёт auCDtect Task manager:

Код:

-----------------------

DON'T MODIFY THIS FILE

-----------------------

PERFORMER: auCDtect Task Manager, ver. 1.5.1RC6 build 1.5.1.7
Copyright (c) 2008-2010 y-soft. All rights reserved
http://y-soft.org

ANALYZER: auCDtect: CD records authenticity detector, version 0.8.2
Copyright (c) 2004 Oleg Berngardt. All rights reserved.
Copyright (c) 2004 Alexander Djourik. All rights reserved.

FILE: 07. Fiancees En Folie.flac
  Size: 20067604 Hash: BC5977662CF7B3A3443FC0BAA8122AF2 Accuracy: -m0
  Conclusion: CDDA 100%
  Signature: 46DD327FDE5B8507EF989537335394C70CB00F56
FILE: 06. Blue Kiss From Brazil.flac
  Size: 42498678 Hash: 1721BD85FB9F8415F3C50FF6ACB65920 Accuracy: -m0
  Conclusion: CDDA 100%
  Signature: 840A508DEB319851BC0F734A9448642C85C0F1DD
FILE: 05. Not This Time.flac
  Size: 33271126 Hash: 4C34783EB57E324C780E66D823251288 Accuracy: -m0
  Conclusion: CDDA 100%
  Signature: 9C2109E870D1B1E5580825200AB50F6262F8E34C
FILE: 04. Etude In Blue.flac
  Size: 29702440 Hash: 3C3C912490FBE61F94A16AF667B13912 Accuracy: -m0
  Conclusion: CDDA 100%
  Signature: FE2BC20C381F97045312CB555F5B6C53F768EA4A
FILE: 03. Bach To Swing.flac
  Size: 28454183 Hash: 542BAD791E4937264256B753A088FA88 Accuracy: -m0
  Conclusion: CDDA 100%
  Signature: ED1E03BDB2196055F050D9097AD8BA54DB9868EF
FILE: 02. Garnerama.flac
  Size: 25228220 Hash: D6AD6974A9D26635CEDD0CB164996D95 Accuracy: -m0
  Conclusion: CDDA 100%
  Signature: B9F5A827BC88C14A3EB755007F8CA4B7FE27D876
FILE: 01. A La Francaise.flac
  Size: 52299213 Hash: EC9411B795E9410DF44B9009A9D66057 Accuracy: -m0
  Conclusion: CDDA 100%
  Signature: F3D6911AEDFC3E0E80440FDF7CC61C3632EC7471



Поглощение/вытеснение
Только с согласия релизера

Beijing65


Реставрация от: kemchuk
Детали торрента:
Название:Claude Bolling - 3 альбома (1975-1984) [FLAC|Lossless]<Jazz Instrumental, Classical>
Дата добавления:28 Апр 2013 16:45:11
Размер:743 MB
Раздают:1
Качают:0
Форум:Jazz (Lossless)

All rights reserved © 2015-2018