TORRENTS45.XYZ

Скачать ВВС: Космос / BBC: Space (3 серии из 3) (2001) DVDRip


ВВС: Космос / BBC: Space (3 серии из 3) (2001) DVDRip
Русское название: ВВС: Космос
Оригинальное название: BBC: Space
Режиссер / Телекомпания: Люк Кэмпбелл, Джереми Тернер
Год выпуска: 2001
Жанр: Документальный

Описание:
Познайте тайны вселенной и нашей планеты, учавствуя в захватывающем путешествии по космосу. Состоит из 3 отдельных фильмов - Жизнь, Выживание, Неизбежность. Захватывающее повествовани о нашей галактике, вселенной, и том, что ждёт Солнечную систему в будущем!

Продолжительность: 3 х 00:50:12

Перевод: Одноголосый закадровый, профессиональный

Видеокодек: DivX 5
Битрейт видео: ~1111 Кбит/с
Размер кадра: 720x544
Качество видео: DVDRip
Аудиокодек: AC3,2ch
Битрейт аудио: 192 Кбит/с

Описание

Выживание
Нам повезло, мы выжили, хотя жизнь на Земле была на грани уничтожения много раз. Мы приглашаем вас совершить захватывающее путешествие в поисках космических убийц, которые однажды могут прекратить наше существование - это кометы, астероиды, черные дыры... Есть только один вопрос насколько реальна эта угроза?
Посмотрев на ночное небо, вы увидите множество светящихся точек, каждая из которых может оказаться целой галактикой. Новый документальный сериал "Космос" - это увлекательный и красочный рассказ о величайших загадках мироздания: рождении сверхновых звезд и гибели целых звездных систем, о голубых гигантах и красных карликах, о строении и истории возникновения нашей солнечной системы. В сериале использованы самые современные технологии съемки с применением специально разработанной компьютерной графики и уникальные кадры, полученные при помощи космической техники.
Жизнь
Все, из чего создан человек и окружающий его мир, когда-то появилось из космоса. Вот уже в течении полувека человечество исследует соседние планеты и ближайшие звездные системы, погружаясь в чужие неизведанные миры, пытаясь найти ответы на Самые главные вопросы: как появилась жизнь на нашей планете и одиноки ли мы во Вселенной?
Посмотрев на ночное небо, вы увидите множество светящихся точек, каждая из которых может оказаться целой галактикой. Новый документальный сериал "Космос" - это увлекательный и красочный рассказ о величайших загадках мироздания: рождении сверхновых звезд и гибели целых звездных систем, о голубых гигантах и красных карликах, о строении и истории возникновения нашей солнечной системы. В сериале использованы самые современные технологии съемки с применением специально разработанной компьютерной графики и уникальные кадры, полученные при помощи космической техники.
Теперь вы сможете наглядно представить себе, насколько необъятна и удивительна Вселенная.
Читает Сэм Нилл. Документальный фильм "Космос" представит Вашему вниманию величайшие загадки мироздания - рождение сверхновой и постепенное угасание целых звездных систем, "голубые гиганты" и "красные карлики", появление нашей солнечной системы. Вы сможете увидеть насколько необъятна и безгранична вселенная.
Неизбежность
Посмотрев на ночное небо, вы увидите множество светящихся точек, каждая из которых может оказаться целой галактикой. Новый документальный сериал "Космос" - это увлекательный и красочный рассказ о величайших загадках мироздания: рождении сверхновых звезд и гибели целых звездных систем, о голубых гигантах и красных карликах, о строении и истории возникновения нашей солнечной системы. В сериале использованы самые современные технологии съемки с применением специально разработанной компьютерной графики и уникальные кадры, полученные при помощи космической техники.

MI:

Общее
Полное имя : D:\BBC.Kosmos.2001\Выживание.avi
Формат : AVI
Формат/Информация : Audio Video Interleave
Размер файла : 470 Мбайт
Продолжительность : 50 м.
Общий поток : 1310 Кбит/сек
Программа кодирования : VirtualDubMod 1.5.4.1 (build 2178/release)
Библиотека кодирования : VirtualDubMod build 2178/release

Видео
Идентификатор : 0
Формат : MPEG-4 Visual
Параметр BVOP формата : 1
Параметр QPel формата : Нет
Параметр GMC формата : Без точки перехода
Параметр матрицы формата : Default (H.263)
Режим смешивания : Сжатый битовый поток
Идентификатор кодека : DX50
Идентификатор кодека/Подсказка : DivX 5
Продолжительность : 50 м.
Битрейт : 1111 Кбит/сек
Ширина : 720 пикселей
Высота : 544 пикселя
Соотношение сторон : 4:3
Частота кадров : 25,000 кадров/сек
Цветовое пространство : YUV
Субдискретизация насыщенности : 4:2:0
Битовая глубина : 8 бит
Тип развёртки : Прогрессивная
Метод сжатия : С потерями
Бит/(Пиксели*Кадры) : 0.113
Размер потока : 399 Мбайт (85%)
Библиотека кодирования : DivX 6.8.2 (UTC 2008-05-17)

Аудио
Идентификатор : 1
Формат : AC-3
Формат/Информация : Audio Coding 3
Расширение режима : CM (complete main)
Параметр Endianness формата : Big
Идентификатор кодека : 2000
Продолжительность : 50 м.
Вид битрейта : Постоянный
Битрейт : 192 Кбит/сек
Каналы : 2 канала
Расположение каналов : Front: L R
Частота : 48,0 КГц
Битовая глубина : 16 бит
Метод сжатия : С потерями
Размер потока : 68,9 Мбайт (15%)
Выравнивание : Разделение по промежуткам
Продолжительность промежутка : 96 мс. (2,40 видеокадра)
Время предзагрузки промежутка : 96 мс.
Язык : Russian
Общее
Полное имя : D:\BBC.Kosmos.2001\Жизнь.avi
Формат : AVI
Формат/Информация : Audio Video Interleave
Размер файла : 470 Мбайт
Продолжительность : 50 м.
Общий поток : 1310 Кбит/сек
Программа кодирования : VirtualDubMod 1.5.4.1 (build 2178/release)
Библиотека кодирования : VirtualDubMod build 2178/release

Видео
Идентификатор : 0
Формат : MPEG-4 Visual
Параметр BVOP формата : 1
Параметр QPel формата : Нет
Параметр GMC формата : Без точки перехода
Параметр матрицы формата : Default (H.263)
Режим смешивания : Сжатый битовый поток
Идентификатор кодека : DX50
Идентификатор кодека/Подсказка : DivX 5
Продолжительность : 50 м.
Битрейт : 1111 Кбит/сек
Ширина : 720 пикселей
Высота : 544 пикселя
Соотношение сторон : 4:3
Частота кадров : 25,000 кадров/сек
Цветовое пространство : YUV
Субдискретизация насыщенности : 4:2:0
Битовая глубина : 8 бит
Тип развёртки : Прогрессивная
Метод сжатия : С потерями
Бит/(Пиксели*Кадры) : 0.113
Размер потока : 399 Мбайт (85%)
Библиотека кодирования : DivX 6.8.2 (UTC 2008-05-17)

Аудио
Идентификатор : 1
Формат : AC-3
Формат/Информация : Audio Coding 3
Расширение режима : CM (complete main)
Параметр Endianness формата : Big
Идентификатор кодека : 2000
Продолжительность : 50 м.
Вид битрейта : Постоянный
Битрейт : 192 Кбит/сек
Каналы : 2 канала
Расположение каналов : Front: L R
Частота : 48,0 КГц
Битовая глубина : 16 бит
Метод сжатия : С потерями
Размер потока : 68,9 Мбайт (15%)
Выравнивание : Разделение по промежуткам
Продолжительность промежутка : 96 мс. (2,40 видеокадра)
Время предзагрузки промежутка : 96 мс.
Язык : Russian
Общее
Полное имя : D:\BBC.Kosmos.2001\Неизбежность.avi
Формат : AVI
Формат/Информация : Audio Video Interleave
Размер файла : 470 Мбайт
Продолжительность : 50 м.
Общий поток : 1310 Кбит/сек
Программа кодирования : VirtualDubMod 1.5.4.1 (build 2178/release)
Библиотека кодирования : VirtualDubMod build 2178/release

Видео
Идентификатор : 0
Формат : MPEG-4 Visual
Параметр BVOP формата : 1
Параметр QPel формата : Нет
Параметр GMC формата : Без точки перехода
Параметр матрицы формата : Default (H.263)
Режим смешивания : Сжатый битовый поток
Идентификатор кодека : DX50
Идентификатор кодека/Подсказка : DivX 5
Продолжительность : 50 м.
Битрейт : 1111 Кбит/сек
Ширина : 720 пикселей
Высота : 544 пикселя
Соотношение сторон : 4:3
Частота кадров : 25,000 кадров/сек
Цветовое пространство : YUV
Субдискретизация насыщенности : 4:2:0
Битовая глубина : 8 бит
Тип развёртки : Прогрессивная
Метод сжатия : С потерями
Бит/(Пиксели*Кадры) : 0.113
Размер потока : 399 Мбайт (85%)
Библиотека кодирования : DivX 6.8.2 (UTC 2008-05-17)

Аудио
Идентификатор : 1
Формат : AC-3
Формат/Информация : Audio Coding 3
Расширение режима : CM (complete main)
Параметр Endianness формата : Big
Идентификатор кодека : 2000
Продолжительность : 50 м.
Вид битрейта : Постоянный
Битрейт : 192 Кбит/сек
Каналы : 2 канала
Расположение каналов : Front: L R
Частота : 48,0 КГц
Битовая глубина : 16 бит
Метод сжатия : С потерями
Размер потока : 68,9 Мбайт (15%)
Выравнивание : Разделение по промежуткам
Продолжительность промежутка : 96 мс. (2,40 видеокадра)
Время предзагрузки промежутка : 96 мс.
Язык : Russian
Скриншоты:


Смотреть Online

http://37.220.36.15/video/ef29d741cdb01029/iframe
Детали торрента:
Название:ВВС: Космос / BBC: Space (3 серии из 3) (2001) DVDRip
Дата добавления:14 Апр 2013 13:01:05
Размер:1,38 GB
Раздают:1
Качают:0
Форум:Космос

All rights reserved © 2015-2018