TORRENTS45.XYZ

Скачать Часы апокалипсиса / Pandora's Clock (1996) SATRip [EN]


Часы апокалипсиса / Pandora's Clock (1996) SATRip [EN]
Русское название: Часы апокалипсиса
Оригинальное название: Pandora's Clock
Год выпуска: 1996
Жанр: Триллер, Драма, Боевик

Описание фильма:
В канун Рождества Боинг — 747 вылетел из Франкфурта в Нью-Йорк. Но после взлета один из пассажиров потерял сознание. ЦРУ предполагает, что он заразился неизвестным вирусом, похищенным из секретной советской лаборатории. Этот страшный вирус передается повоздуху, от него не существует лекарств и он способен убить миллионы людей.

Капитан Холланд просит срочной посадки. Но ни один аэропорт не соглашается принимать самолет. Узнав, что директор ЦРУ убеждает президента США уничтожить самолет, Холланд берет ситуацию под контроль. Сражаясь со временем, нехваткой топлива, правительством, международными террористами, ускользая от ракет — убийц, мужественный капитан ведет свое воздушное судно к спасению.

Но если самолет приземлится, всему человечеству грозит гибель.

Режиссер: Эрик Ланёвилль
Актеры: Ричард Дин Андерсон, Дафна Зунига, Джейн Ливз, Ричард Лосон, Стивен Рут, Тим Грим, Эдвард Херрманн, Роберт Гийом, Роберт Лоджа, Джерри Хардин

Продолжительность: 02:57:03
Перевод: Отсутствует
Язык: Английский



Дата мировой премьеры: 10.11.96

Видеокодек: DivX 4/5/6
Битрейт видео: ~740 kb/s
Размер кадра: 720 x 480 px
Качество видео: SATRip
Аудиокодек: MP3, 2 channels
Битрейт аудио: 320 kb/s
Сэмпл: Ссылка

MediaInfo

F:\Фильмы\Pandora's Clock.divx
General
Complete name : F:\Фильмы\Pandora's Clock.divx
Format : DivX
Format/Info : Hack of AVI
File size : 1.33 GiB
Duration : 2h 57mn
Overall bit rate : 1 072 Kbps
Video #0
ID : 0
Format : MPEG-4 Visual
Format settings, BVOP : 1
Format settings, QPel : No
Format settings, GMC : No warppoints
Format settings, Matrix : Default (H.263)
Muxing mode : Packed bitstream
Codec ID : DX50
Codec ID/Hint : DivX 5
Duration : 2h 57mn
Bit rate : 740 Kbps
Width : 720 pixels
Height : 480 pixels
Display aspect ratio : 4:3
Frame rate : 29.970 fps
Standard : NTSC
Color space : YUV
Chroma subsampling : 4:2:0
Bit depth : 8 bits
Scan type : Progressive
Compression mode : Lossy
Bits/(Pixel*Frame) : 0.071
Stream size : 937 MiB (69%)
Title : Video
Writing library : DivX 2151
Audio #1
ID : 1
Format : MPEG Audio
Format version : Version 1
Format profile : Layer 3
Codec ID : 55
Codec ID/Hint : MP3
Duration : 2h 57mn
Bit rate mode : Constant
Bit rate : 320 Kbps
Channel(s) : 2 channels
Sampling rate : 48.0 KHz
Compression mode : Lossy
Stream size : 405 MiB (30%)
Alignment : Split accross interleaves
Interleave, duration : 33 ms (1.00 video frame)
Interleave, preload duration : 500 ms
Title : Audio
Скриншоты:

Рецензия, отзыв о фильме

Отличный триллер. Держит в напряжении от первой до последней минуты.
Детали торрента:
Название:Часы апокалипсиса / Pandora's Clock (1996) SATRip [EN]
Дата добавления:25 Мар 2013 13:15:08
Размер:1,33 GB
Раздают:
Качают:0
Форум:Фильмы в оригинале

All rights reserved © 2015-2018