TORRENTS45.XYZ

Скачать Helen Merrill - The Complete Helen Merrill On Mercury (4CD Box Set) (1986) [FLAC|Lossless]<Jazz Vocal>


Helen Merrill - The Complete Helen Merrill On Mercury (4CD Box Set) (1986)
Год: 1986
Жанр: Jazz Vocal
Издатель: Mercury/Polygram Records Inc {826 340-2}
Страна изготовитель: West Germany
Продолжительность: 03:31:36

Кодек: FLAC
Битрейт: Lossless
Источник: Web

Трек лист:
Disk 01
01. Alone Together [03:14]
02. Alone Together [03:14]
03. Glad To Be Unhappy [02:54]
04. This Is My Night To Cry [03:10]
05. How's The World Treating You [03:00]
06. How's The World Treating You [03:00]
07. Don't Explain [05:16]
08. Born To Be Blue [05:13]
09. You'd Be So Nice To Come Home To [04:21]
10. 'S Wonderful [03:15]
11. Yesterdays [06:01]
12. Falling In Love With Love [03:55]
13. What's New? [05:01]

Продолжительность: 00:51:34

TechInfo Disk 01

Отчёт ЕАС:

Код:

Exact Audio Copy V0.99 prebeta 3 from 28. July 2007

EAC extraction logfile from 28. November 2010, 19:14

Helen Merrill / Complete Helen Merrill On Mercury (Disc 1)

Used drive  : TOSHIBA DVD-ROM SD-R2512   Adapter: 1  ID: 0

Read mode               : Secure
Utilize accurate stream : Yes
Defeat audio cache      : Yes
Make use of C2 pointers : No

Read offset correction                      : 116
Overread into Lead-In and Lead-Out          : No
Fill up missing offset samples with silence : Yes
Delete leading and trailing silent blocks   : No
Null samples used in CRC calculations       : Yes
Used interface                              : Installed external ASPI interface
Gap handling                                : Appended to previous track

Used output format              : User Defined Encoder
Selected bitrate                : 320 kBit/s
Quality                         : High
Add ID3 tag                     : No
Command line compressor         : C:\Program Files\Exact Audio Copy\Flac\flac.exe
Additional command line options : -V -8 -T "artist=%a" -T "title=%t" -T "album=%g" -T "date=%y" -T "tracknumber=%n" -T "genre=%m" %s

TOC of the extracted CD

     Track |   Start  |  Length  | Start sector | End sector
    ---------------------------------------------------------
        1  |  0:00.00 |  3:13.70 |         0    |    14544
        2  |  3:13.70 |  3:14.28 |     14545    |    29122
        3  |  6:28.23 |  2:53.72 |     29123    |    42169
        4  |  9:22.20 |  3:09.60 |     42170    |    56404
        5  | 12:32.05 |  3:00.13 |     56405    |    69917
        6  | 15:32.18 |  2:59.57 |     69918    |    83399
        7  | 18:32.00 |  5:15.73 |     83400    |   107097
        8  | 23:47.73 |  5:13.35 |    107098    |   130607
        9  | 29:01.33 |  4:20.52 |    130608    |   150159
       10  | 33:22.10 |  3:15.05 |    150160    |   164789
       11  | 36:37.15 |  6:00.48 |    164790    |   191837
       12  | 42:37.63 |  3:55.30 |    191838    |   209492
       13  | 46:33.18 |  5:01.15 |    209493    |   232082

Track  1

     Filename E:\Working Group\01 - Alone Together(Alternate Take).wav

     Pre-gap length  0:00:02.00

     Peak level 92.7 %
     Track quality 99.9 %
     Test CRC EF9F3EE9
     Copy CRC EF9F3EE9
     Track not present in AccurateRip database
     Copy OK

Track  2

     Filename E:\Working Group\02 - Alone Together.wav

     Pre-gap length  0:00:00.15

     Peak level 82.0 %
     Track quality 100.0 %
     Test CRC 19D612A2
     Copy CRC 19D612A2
     Track not present in AccurateRip database
     Copy OK

Track  3

     Filename E:\Working Group\03 - Glad To Be Unhappy.wav

     Pre-gap length  0:00:01.28

     Peak level 73.3 %
     Track quality 100.0 %
     Test CRC 54A2E896
     Copy CRC 54A2E896
     Track not present in AccurateRip database
     Copy OK

Track  4

     Filename E:\Working Group\04 - This Is My Night To Cry.wav

     Pre-gap length  0:00:01.10

     Peak level 69.6 %
     Track quality 100.0 %
     Test CRC C0D86BC2
     Copy CRC C0D86BC2
     Track not present in AccurateRip database
     Copy OK

Track  5

     Filename E:\Working Group\05 - How's the World Treating You.wav

     Pre-gap length  0:00:00.50

     Peak level 66.5 %
     Track quality 100.0 %
     Test CRC 23C537F4
     Copy CRC 23C537F4
     Track not present in AccurateRip database
     Copy OK

Track  6

     Filename E:\Working Group\06 - How's the World Treating You.wav

     Pre-gap length  0:00:01.15

     Peak level 86.1 %
     Track quality 100.0 %
     Test CRC FC16C3D1
     Copy CRC FC16C3D1
     Track not present in AccurateRip database
     Copy OK

Track  7

     Filename E:\Working Group\07 - Don't Explain.wav

     Pre-gap length  0:00:00.47

     Peak level 94.6 %
     Track quality 100.0 %
     Test CRC 2CE94D18
     Copy CRC 2CE94D18
     Track not present in AccurateRip database
     Copy OK

Track  8

     Filename E:\Working Group\08 - Born to Be Blue.wav

     Pre-gap length  0:00:03.38

     Peak level 100.0 %
     Track quality 99.9 %
     Test CRC 95A4E80F
     Copy CRC 95A4E80F
     Track not present in AccurateRip database
     Copy OK

Track  9

     Filename E:\Working Group\09 - You'd Be So Nice to Come Home To.wav

     Pre-gap length  0:00:01.00

     Peak level 100.0 %
     Track quality 100.0 %
     Test CRC 9C7C4D44
     Copy CRC 9C7C4D44
     Track not present in AccurateRip database
     Copy OK

Track 10

     Filename E:\Working Group\10 - 'S Wonderful.wav

     Pre-gap length  0:00:01.15

     Peak level 100.0 %
     Track quality 100.0 %
     Test CRC FD5E7523
     Copy CRC FD5E7523
     Track not present in AccurateRip database
     Copy OK

Track 11

     Filename E:\Working Group\11 - Yesterdays.wav

     Pre-gap length  0:00:01.22

     Peak level 100.0 %
     Track quality 99.9 %
     Test CRC 6129ABD2
     Copy CRC 6129ABD2
     Track not present in AccurateRip database
     Copy OK

Track 12

     Filename E:\Working Group\12 - Falling in Love With Love.wav

     Pre-gap length  0:00:00.60

     Peak level 100.0 %
     Track quality 100.0 %
     Test CRC F3318A9C
     Copy CRC F3318A9C
     Track not present in AccurateRip database
     Copy OK

Track 13

     Filename E:\Working Group\13 - What's New .wav

     Pre-gap length  0:00:01.25

     Peak level 100.0 %
     Track quality 99.9 %
     Test CRC 282235EF
     Copy CRC 282235EF
     Track not present in AccurateRip database
     Copy OK

None of the tracks are present in the AccurateRip database

No errors occurred

End of status report

Отчёт auCDtect Task manager:

Код:

-----------------------

DON'T MODIFY THIS FILE

-----------------------

PERFORMER: auCDtect Task Manager, ver. 1.5.1RC6 build 1.5.1.7
Copyright (c) 2008-2010 y-soft. All rights reserved
http://y-soft.org

ANALYZER: auCDtect: CD records authenticity detector, version 0.8.2
Copyright (c) 2004 Oleg Berngardt. All rights reserved.
Copyright (c) 2004 Alexander Djourik. All rights reserved.

FILE: 13. What's New.flac
  Size: 27230292 Hash: 275DE6F567128F9E1AE22977C12EB595 Accuracy: -m0
  Conclusion: CDDA 100%
  Signature: C2E7C480BF26B63EC8E3DE7EE92CEDDB198F97F1
FILE: 12. Falling In Love With Love.flac
  Size: 23039928 Hash: E2CFF9A6DC2BDE33EB61BD5B1E33A7E8 Accuracy: -m0
  Conclusion: CDDA 100%
  Signature: 53A8B944BB8293C5C6EBCC3E67F2105F3C9B5C42
FILE: 11. Yesterdays.flac
  Size: 34733510 Hash: 92AB30B063E087040430BDFE05C7F6EA Accuracy: -m0
  Conclusion: CDDA 100%
  Signature: 7F8A4B8180BCEF1EC537C64C25A2CEA0823E32BF
FILE: 10. 'S Wonderful.flac
  Size: 19159002 Hash: 1F0FD045058DA6EA4A5585A5FE537B5D Accuracy: -m0
  Conclusion: CDDA 100%
  Signature: 5C4C5E701E29EC0E0018F01F31D2948F3F688FFC
FILE: 09. You'd Be So Nice To Come Home To.flac
  Size: 25548550 Hash: F3076A00E117386CDEF80F43C5110317 Accuracy: -m0
  Conclusion: CDDA 100%
  Signature: 3B5CEBCB9B8CE8804DA9003C6368D31BA9C31CB9
FILE: 08. Born To Be Blue.flac
  Size: 29675244 Hash: 6B6A282DDCBC6D30CFD50AF377C54BF8 Accuracy: -m0
  Conclusion: CDDA 100%
  Signature: A4F355E050A0424E6788FF16AFBA9EAEECE45A83
FILE: 07. Don't Explain.flac
  Size: 28103926 Hash: B88B0E8A3F43142A94CEFF5729E8628B Accuracy: -m0
  Conclusion: CDDA 100%
  Signature: 81237B7F5B62A21F6D271D8FA5F6FF1B393AB8F1
FILE: 06. How's The World Treating You.flac
  Size: 16319315 Hash: C4AB07B5F439548B587F99498E7447C1 Accuracy: -m0
  Conclusion: CDDA 100%
  Signature: A973FFB8F2DC073281CEF9A7848A3F25F6F1A964
FILE: 05. How's The World Treating You.flac
  Size: 14620354 Hash: 862F3EEBD0414CFC326E66BE250792C4 Accuracy: -m0
  Conclusion: CDDA 100%
  Signature: E1991B8C269CBF44A04D602D257E8229B702EBF2
FILE: 04. This Is My Night To Cry.flac
  Size: 15588854 Hash: 7FE3BBEC3974819C8C1B783D57657329 Accuracy: -m0
  Conclusion: CDDA 100%
  Signature: B03B1A5CC17F083C2B6EEA75D10CA873CD3E44AD
FILE: 03. Glad To Be Unhappy.flac
  Size: 15325861 Hash: CAAA4AA86714939BB3BD71896E9DD437 Accuracy: -m0
  Conclusion: CDDA 100%
  Signature: CB00B6C17F2F5160EBA951FC37DE8B455E9083EC
FILE: 02. Alone Together.flac
  Size: 17246878 Hash: 25FD729B2C2C1F0D9C80DF94EE80B583 Accuracy: -m0
  Conclusion: CDDA 100%
  Signature: 40F2BF53C2894A02FD5180B6FA5806454CF21330
FILE: 01. Alone Together.flac
  Size: 17178031 Hash: 2DDA8F8B9E78A0D219E048CFC68BA137 Accuracy: -m0
  Conclusion: CDDA 100%
  Signature: 790B10E7A45241DA11C7A41961E92B69DDF8222C

Disk 02

01. You Won't Forget Me [03:10]
02. Lilac Wine [04:25]
03. Spring Will Be A Little Late This Year [03:53]
04. Beautiful Love [03:15]
05. Just You, Just Me [03:37]
06. When I Fall In Love [03:23]
07. The End Of A Love Affair [03:28]
08. Mountain High, Valley Low [03:03]
09. Anything Goes [03:08]
10. Comes Love [03:02]
11. (I'm Afraid) The Masquerade Is Over [04:04]
12. Wait Till You See Him [03:26]
13. He Was Too Good To Me [03:05]
14. I've Never Seen [03:36]
15. I'm A Fool To Want You [04:10]
16. Troubled Waters [03:16]

Продолжительность: 00:56:01

Отчёт ЕАС:

Код:

Exact Audio Copy V0.99 prebeta 3 from 28. July 2007

EAC extraction logfile from 28. November 2010, 17:27

Helen Merrill / Complete Helen Merrill on Mercury (Disc 2)

Used drive  : TOSHIBA DVD-ROM SD-R2512   Adapter: 1  ID: 0

Read mode               : Secure
Utilize accurate stream : Yes
Defeat audio cache      : Yes
Make use of C2 pointers : No

Read offset correction                      : 116
Overread into Lead-In and Lead-Out          : No
Fill up missing offset samples with silence : Yes
Delete leading and trailing silent blocks   : No
Null samples used in CRC calculations       : Yes
Used interface                              : Installed external ASPI interface
Gap handling                                : Appended to previous track

Used output format              : User Defined Encoder
Selected bitrate                : 320 kBit/s
Quality                         : High
Add ID3 tag                     : No
Command line compressor         : C:\Program Files\Exact Audio Copy\Flac\flac.exe
Additional command line options : -V -8 -T "artist=%a" -T "title=%t" -T "album=%g" -T "date=%y" -T "tracknumber=%n" -T "genre=%m" %s

TOC of the extracted CD

     Track |   Start  |  Length  | Start sector | End sector
    ---------------------------------------------------------
        1  |  0:00.00 |  3:10.00 |         0    |    14249
        2  |  3:10.00 |  4:25.18 |     14250    |    34142
        3  |  7:35.18 |  3:53.02 |     34143    |    51619
        4  | 11:28.20 |  3:15.05 |     51620    |    66249
        5  | 14:43.25 |  3:36.53 |     66250    |    82502
        6  | 18:20.03 |  3:22.52 |     82503    |    97704
        7  | 21:42.55 |  3:27.48 |     97705    |   113277
        8  | 25:10.28 |  3:02.40 |    113278    |   126967
        9  | 28:12.68 |  3:08.20 |    126968    |   141087
       10  | 31:21.13 |  3:02.22 |    141088    |   154759
       11  | 34:23.35 |  4:03.60 |    154760    |   173044
       12  | 38:27.20 |  3:26.05 |    173045    |   188499
       13  | 41:53.25 |  3:04.50 |    188500    |   202349
       14  | 44:58.00 |  3:35.73 |    202350    |   218547
       15  | 48:33.73 |  4:09.55 |    218548    |   237277
       16  | 52:43.53 |  3:16.02 |    237278    |   251979

Track  1

     Filename E:\Working Group\01 - You Won't Forget Me.wav

     Pre-gap length  0:00:02.00

     Peak level 74.1 %
     Track quality 100.0 %
     Test CRC 7018D40D
     Copy CRC 7018D40D
     Track not present in AccurateRip database
     Copy OK

Track  2

     Filename E:\Working Group\02 - Lilac Wine.wav

     Pre-gap length  0:00:00.60

     Peak level 64.8 %
     Track quality 100.0 %
     Test CRC 44F46A80
     Copy CRC 44F46A80
     Track not present in AccurateRip database
     Copy OK

Track  3

     Filename E:\Working Group\03 - Spring Will Be a Little Late This Year.wav

     Pre-gap length  0:00:00.58

     Peak level 58.6 %
     Track quality 100.0 %
     Test CRC DE9C71D1
     Copy CRC DE9C71D1
     Track not present in AccurateRip database
     Copy OK

Track  4

     Filename E:\Working Group\04 - Beautiful Love.wav

     Pre-gap length  0:00:00.72

     Peak level 79.7 %
     Track quality 100.0 %
     Test CRC 6106CF47
     Copy CRC 6106CF47
     Track not present in AccurateRip database
     Copy OK

Track  5

     Filename E:\Working Group\05 - Just You, Just Me.wav

     Pre-gap length  0:00:00.72

     Peak level 76.3 %
     Track quality 100.0 %
     Test CRC 6320D2C6
     Copy CRC 6320D2C6
     Track not present in AccurateRip database
     Copy OK

Track  6

     Filename E:\Working Group\06 - When I Fall in Love.wav

     Pre-gap length  0:00:01.00

     Peak level 85.8 %
     Track quality 100.0 %
     Test CRC 9F16B3D1
     Copy CRC 9F16B3D1
     Track not present in AccurateRip database
     Copy OK

Track  7

     Filename E:\Working Group\07 - The End of a Love Affair.wav

     Pre-gap length  0:00:01.02

     Peak level 60.9 %
     Track quality 100.0 %
     Test CRC 8522447B
     Copy CRC 8522447B
     Track not present in AccurateRip database
     Copy OK

Track  8

     Filename E:\Working Group\08 - Mountain High, Valley Low.wav

     Pre-gap length  0:00:00.63

     Peak level 62.0 %
     Track quality 100.0 %
     Test CRC 32A170CE
     Copy CRC 32A170CE
     Track not present in AccurateRip database
     Copy OK

Track  9

     Filename E:\Working Group\09 - Anything Goes.wav

     Pre-gap length  0:00:01.65

     Peak level 94.7 %
     Track quality 99.9 %
     Test CRC F63F5EC9
     Copy CRC F63F5EC9
     Track not present in AccurateRip database
     Copy OK

Track 10

     Filename E:\Working Group\10 - Comes Love.wav

     Pre-gap length  0:00:01.30

     Peak level 76.4 %
     Track quality 99.9 %
     Test CRC C0BD69A1
     Copy CRC C0BD69A1
     Track not present in AccurateRip database
     Copy OK

Track 11

     Filename E:\Working Group\11 - (I'm Afraid) The Masquerade Is Over.wav

     Pre-gap length  0:00:00.67

     Peak level 70.5 %
     Track quality 99.9 %
     Test CRC 34DD11B7
     Copy CRC 34DD11B7
     Track not present in AccurateRip database
     Copy OK

Track 12

     Filename E:\Working Group\12 - Wait Till You See Him.wav

     Pre-gap length  0:00:00.70

     Peak level 72.0 %
     Track quality 100.0 %
     Test CRC 19644E99
     Copy CRC 19644E99
     Track not present in AccurateRip database
     Copy OK

Track 13

     Filename E:\Working Group\13 - He Was Too Good to Me.wav

     Pre-gap length  0:00:01.05

     Peak level 93.4 %
     Track quality 100.0 %
     Test CRC 08CFB172
     Copy CRC 08CFB172
     Track not present in AccurateRip database
     Copy OK

Track 14

     Filename E:\Working Group\14 - I've Never Seen.wav

     Pre-gap length  0:00:01.15

     Peak level 77.7 %
     Track quality 100.0 %
     Test CRC D9DF3BDE
     Copy CRC D9DF3BDE
     Track not present in AccurateRip database
     Copy OK

Track 15

     Filename E:\Working Group\15 - I'm a Fool to Want You.wav

     Pre-gap length  0:00:01.10

     Peak level 73.0 %
     Track quality 99.9 %
     Test CRC E3C20FB2
     Copy CRC E3C20FB2
     Track not present in AccurateRip database
     Copy OK

Track 16

     Filename E:\Working Group\16 - Troubled Waters.wav

     Pre-gap length  0:00:01.08

     Peak level 71.1 %
     Track quality 100.0 %
     Test CRC 787D73CC
     Copy CRC 787D73CC
     Track not present in AccurateRip database
     Copy OK

None of the tracks are present in the AccurateRip database

No errors occurred

End of status report

Отчёт auCDtect Task manager:

Код:

-----------------------

DON'T MODIFY THIS FILE

-----------------------

PERFORMER: auCDtect Task Manager, ver. 1.5.1RC6 build 1.5.1.7
Copyright (c) 2008-2010 y-soft. All rights reserved
http://y-soft.org

ANALYZER: auCDtect: CD records authenticity detector, version 0.8.2
Copyright (c) 2004 Oleg Berngardt. All rights reserved.
Copyright (c) 2004 Alexander Djourik. All rights reserved.

FILE: 16. Troubled Waters.flac
  Size: 17947542 Hash: 4325B0ADF59B9D6063243B98D570DC76 Accuracy: -m0
  Conclusion: CDDA 99%
  Signature: A8C0D225F3251CB836A4EE9841DF8AC6EFE4D478
FILE: 15. I'm A Fool To Want You.flac
  Size: 22319071 Hash: A979F93BA1538FE802351B970C4F37FC Accuracy: -m0
  Conclusion: CDDA 100%
  Signature: 0387F6009F5BBEC1D105A806EFEBDDC539021E73
FILE: 14. I've Never Seen.flac
  Size: 19754270 Hash: E753264BE824C22383D32552354FEA8E Accuracy: -m0
  Conclusion: CDDA 100%
  Signature: BFD6012F81BE2941ED28CC00DA5A2109FF1608AF
FILE: 13. He Was Too Good To Me.flac
  Size: 17313035 Hash: 9001F0A338C6A987695127DE581D1EAB Accuracy: -m0
  Conclusion: CDDA 100%
  Signature: 6F2DB4C2A484AC55F39FA5FA34B37AA053B8D71E
FILE: 12. Wait Till You See Him.flac
  Size: 18629075 Hash: 904D4F974A9651C10C55F70A2C96CA7A Accuracy: -m0
  Conclusion: CDDA 100%
  Signature: F07BCD2015A1AC64A0E1D5B707FE640AE9E46875
FILE: 11. (I'm Afraid) The Masquerade Is Over.flac
  Size: 22634563 Hash: A86418F1F427130D0EB86DB63D483470 Accuracy: -m0
  Conclusion: CDDA 100%
  Signature: 1BF4F5AEDEC64C95F594C24A79D6E76396972691
FILE: 10. Comes Love.flac
  Size: 16642569 Hash: 3292C47ABBC5A59A71ECFBEBB719B351 Accuracy: -m0
  Conclusion: CDDA 100%
  Signature: 58BED40E1E0A531B122149880A71D8814577811E
FILE: 09. Anything Goes.flac
  Size: 17607005 Hash: 22EBD9D6B43F1C40D94BD4E63F0F7CB1 Accuracy: -m0
  Conclusion: CDDA 100%
  Signature: 72FBCADD962F8B504F0C379DC7C276EE8B3FABAE
FILE: 08. Mountain High, Valley Low.flac
  Size: 16867477 Hash: F07AB2D25E499CE70996DC1E1A4359B1 Accuracy: -m0
  Conclusion: CDDA 99%
  Signature: 3D5279C1DB19CED8EA59A39BE9A42E18E8014441
FILE: 07. The End Of A Love Affair.flac
  Size: 17851006 Hash: 74E01760999C4695929AE58C3BE23F37 Accuracy: -m0
  Conclusion: CDDA 100%
  Signature: 00953BE44D10D74A199B634FBE162B74E07EDC33
FILE: 06. When I Fall In Love.flac
  Size: 18109213 Hash: 68D0AEF136B3039913197E50A871672D Accuracy: -m0
  Conclusion: CDDA 100%
  Signature: 81092A28FA639FC35EA21C137AAA091D4478F176
FILE: 05. Just You, Just Me.flac
  Size: 20156829 Hash: B991FC293F4D417E3753428A6F02D27C Accuracy: -m0
  Conclusion: CDDA 100%
  Signature: 491E37276EFCE79F59358DDC62B4CC31F87287B6
FILE: 04. Beautiful Love.flac
  Size: 18951648 Hash: 85796D255BFBA7AA23048C58BD9F8CEF Accuracy: -m0
  Conclusion: CDDA 99%
  Signature: E9431A7D46C23AD68C19F1FD5248106DB6DECD43
FILE: 03. Spring Will Be A Little Late This Year.flac
  Size: 20823101 Hash: 67418E66AFDB7ABA9262F9E101132CEA Accuracy: -m0
  Conclusion: CDDA 99%
  Signature: 1C502898DDA7B6B116697B6F4D73C432B5832962
FILE: 02. Lilac Wine.flac
  Size: 24311582 Hash: 64BFF072D66966473ECDE77548A79326 Accuracy: -m0
  Conclusion: CDDA 100%
  Signature: DC390094A2B33622FF19853AFF8C481A87FCBC35
FILE: 01. You Won't Forget Me.flac
  Size: 17396940 Hash: D8EAD4C4EF2D9D0ABE4C50906E315E54 Accuracy: -m0
  Conclusion: CDDA 100%
  Signature: B98B16615BAED361E2AB451DBA289CC7448C08C7

Disk 03

01. Any Place I Hang My Hat Is Home [04:12]
02. Where Flamingo's Fly [02:47]
03. I'm Just A Lucky So And So [03:11]
04. A New Town Is A Blue Town [03:12]
05. Be Myself [03:27]
06. People Will Say We're In Love [02:37]
07. You're Lucky To Me [03:29]
08. Dream Of You [02:57]
09. Blue Guitar [02:52]
10. Listen [02:40]
11. I'll Be Around [02:46]
12. Soft As Spring [03:17]
13. If I Forget You [03:22]
14. After You [03:07]
15. It's A Lazy Afternoon [03:10]

Продолжительность: 00:47:06

Отчёт ЕАС:

Код:

Exact Audio Copy V0.99 prebeta 3 from 28. July 2007

EAC extraction logfile from 28. November 2010, 20:11

Helen Merrill / Complete Helen Merrill on Mercury (Disc 3)

Used drive  : TOSHIBA DVD-ROM SD-R2512   Adapter: 1  ID: 0

Read mode               : Secure
Utilize accurate stream : Yes
Defeat audio cache      : Yes
Make use of C2 pointers : No

Read offset correction                      : 116
Overread into Lead-In and Lead-Out          : No
Fill up missing offset samples with silence : Yes
Delete leading and trailing silent blocks   : No
Null samples used in CRC calculations       : Yes
Used interface                              : Installed external ASPI interface
Gap handling                                : Appended to previous track

Used output format              : User Defined Encoder
Selected bitrate                : 320 kBit/s
Quality                         : High
Add ID3 tag                     : No
Command line compressor         : C:\Program Files\Exact Audio Copy\Flac\flac.exe
Additional command line options : -V -8 -T "artist=%a" -T "title=%t" -T "album=%g" -T "date=%y" -T "tracknumber=%n" -T "genre=%m" %s

TOC of the extracted CD

     Track |   Start  |  Length  | Start sector | End sector
    ---------------------------------------------------------
        1  |  0:00.00 |  4:12.20 |         0    |    18919
        2  |  4:12.20 |  2:47.25 |     18920    |    31469
        3  |  6:59.45 |  3:10.60 |     31470    |    45779
        4  | 10:10.30 |  3:11.40 |     45780    |    60144
        5  | 13:21.70 |  3:26.52 |     60145    |    75646
        6  | 16:48.47 |  2:37.00 |     75647    |    87421
        7  | 19:25.47 |  3:28.63 |     87422    |   103084
        8  | 22:54.35 |  2:57.25 |    103085    |   116384
        9  | 25:51.60 |  2:51.67 |    116385    |   129276
       10  | 28:43.52 |  2:39.48 |    129277    |   141249
       11  | 31:23.25 |  2:45.60 |    141250    |   153684
       12  | 34:09.10 |  3:16.42 |    153685    |   168426
       13  | 37:25.52 |  3:22.08 |    168427    |   183584
       14  | 40:47.60 |  3:07.02 |    183585    |   197611
       15  | 43:54.62 |  3:09.55 |    197612    |   211841

Track  1

     Filename E:\Working Group\01 - Any Place I Hang My Hat Is Home.wav

     Pre-gap length  0:00:02.00

     Peak level 89.5 %
     Track quality 100.0 %
     Test CRC 37AEDE2F
     Copy CRC 37AEDE2F
     Track not present in AccurateRip database
     Copy OK

Track  2

     Filename E:\Working Group\02 - Where Flamingos Fly.wav

     Pre-gap length  0:00:00.13

     Peak level 76.9 %
     Track quality 100.0 %
     Test CRC 697CA067
     Copy CRC 697CA067
     Track not present in AccurateRip database
     Copy OK

Track  3

     Filename E:\Working Group\03 - I'm Just a Lucky So and So.wav

     Pre-gap length  0:00:00.33

     Peak level 84.7 %
     Track quality 100.0 %
     Test CRC 03C896D1
     Copy CRC 03C896D1
     Track not present in AccurateRip database
     Copy OK

Track  4

     Filename E:\Working Group\04 - A New Town Is a Blue Town.wav

     Pre-gap length  0:00:00.65

     Peak level 72.8 %
     Track quality 100.0 %
     Test CRC 4C84AB1F
     Copy CRC 4C84AB1F
     Track not present in AccurateRip database
     Copy OK

Track  5

     Filename E:\Working Group\05 - Be Myself.wav

     Pre-gap length  0:00:00.48

     Peak level 100.0 %
     Track quality 100.0 %
     Test CRC A4389CD5
     Copy CRC A4389CD5
     Track not present in AccurateRip database
     Copy OK

Track  6

     Filename E:\Working Group\06 - People Will Say We're in Love.wav

     Pre-gap length  0:00:01.22

     Peak level 100.0 %
     Track quality 99.9 %
     Test CRC 87D02585
     Copy CRC 87D02585
     Track not present in AccurateRip database
     Copy OK

Track  7

     Filename E:\Working Group\07 - You're Lucky to Me.wav

     Pre-gap length  0:00:01.32

     Peak level 84.4 %
     Track quality 100.0 %
     Test CRC D290FB3F
     Copy CRC D290FB3F
     Track not present in AccurateRip database
     Copy OK

Track  8

     Filename E:\Working Group\08 - Dream of You.wav

     Pre-gap length  0:00:01.43

     Peak level 78.0 %
     Track quality 99.9 %
     Test CRC DFF55EED
     Copy CRC DFF55EED
     Track not present in AccurateRip database
     Copy OK

Track  9

     Filename E:\Working Group\09 - Blue Guitar.wav

     Pre-gap length  0:00:01.20

     Peak level 74.0 %
     Track quality 100.0 %
     Test CRC 66BC7DA2
     Copy CRC 66BC7DA2
     Track not present in AccurateRip database
     Copy OK

Track 10

     Filename E:\Working Group\10 - Listen.wav

     Pre-gap length  0:00:01.20

     Peak level 93.8 %
     Track quality 100.0 %
     Test CRC 73C4D6F7
     Copy CRC 73C4D6F7
     Track not present in AccurateRip database
     Copy OK

Track 11

     Filename E:\Working Group\11 - I'll Be Around.wav

     Pre-gap length  0:00:00.25

     Peak level 71.5 %
     Track quality 100.0 %
     Test CRC E8D22C56
     Copy CRC E8D22C56
     Track not present in AccurateRip database
     Copy OK

Track 12

     Filename E:\Working Group\12 - Soft as Spring.wav

     Pre-gap length  0:00:01.18

     Peak level 75.3 %
     Track quality 99.9 %
     Test CRC CD373D51
     Copy CRC CD373D51
     Track not present in AccurateRip database
     Copy OK

Track 13

     Filename E:\Working Group\13 - If I Forget You.wav

     Pre-gap length  0:00:01.15

     Peak level 62.1 %
     Track quality 100.0 %
     Test CRC 5218FFF0
     Copy CRC 5218FFF0
     Track not present in AccurateRip database
     Copy OK

Track 14

     Filename E:\Working Group\14 - After You.wav

     Pre-gap length  0:00:00.28

     Peak level 70.9 %
     Track quality 100.0 %
     Test CRC FF2E58DE
     Copy CRC FF2E58DE
     Track not present in AccurateRip database
     Copy OK

Track 15

     Filename E:\Working Group\15 - It's a Lazy Afternoon.wav

     Pre-gap length  0:00:01.15

     Peak level 69.4 %
     Track quality 100.0 %
     Test CRC 5A188881
     Copy CRC 5A188881
     Track not present in AccurateRip database
     Copy OK

None of the tracks are present in the AccurateRip database

No errors occurred

End of status report

Отчёт auCDtect Task manager:

Код:

-----------------------

DON'T MODIFY THIS FILE

-----------------------

PERFORMER: auCDtect Task Manager, ver. 1.5.1RC6 build 1.5.1.7
Copyright (c) 2008-2010 y-soft. All rights reserved
http://y-soft.org

ANALYZER: auCDtect: CD records authenticity detector, version 0.8.2
Copyright (c) 2004 Oleg Berngardt. All rights reserved.
Copyright (c) 2004 Alexander Djourik. All rights reserved.

FILE: 15. It's A Lazy Afternoon.flac
  Size: 17264188 Hash: 511969986CB3D46680811DC391F7C8BC Accuracy: -m0
  Conclusion: CDDA 100%
  Signature: B0FB95B79D4F07EEEB6E3309C1D0F1EC299B1B15
FILE: 14. After You.flac
  Size: 16282803 Hash: 15A13BF76BFCCDBC252517D49C48C755 Accuracy: -m0
  Conclusion: CDDA 100%
  Signature: BF996A5766088188D2B385DC00EEE0867E809DB0
FILE: 13. If I Forget You.flac
  Size: 18102366 Hash: 8DD88E7EDE48822B3C34B03F6AA5C296 Accuracy: -m0
  Conclusion: CDDA 100%
  Signature: C5B6B49D69E0178B86E672A95CB9BFC12E5B28C9
FILE: 12. Soft As Spring.flac
  Size: 17688690 Hash: 5527FD057987349AB68D64584B1DAED2 Accuracy: -m0
  Conclusion: CDDA 100%
  Signature: BCE1F342A7613A046D4FCD8253F796036BCD146B
FILE: 11. I'll Be Around.flac
  Size: 15131910 Hash: 01ED41CA84978CF4B90462EF99ADC82A Accuracy: -m0
  Conclusion: CDDA 100%
  Signature: F7AB177307B6434A79399D5004ED089B068D20E7
FILE: 10. Listen.flac
  Size: 15614548 Hash: FE7DE5B0BC04783441252F6170B88273 Accuracy: -m0
  Conclusion: CDDA 100%
  Signature: B58F4BABB4326363EF2F244AC410FD0414781E91
FILE: 09. Blue Guitar.flac
  Size: 15900597 Hash: A26F188E29F77ED45DA9BD3743CB2112 Accuracy: -m0
  Conclusion: CDDA 100%
  Signature: CD772A1E1C9791EE7D97B2C70E43EDC9EEF75D3A
FILE: 08. Dream Of You.flac
  Size: 14848304 Hash: 31D917BEC98B94F4897833773F572B2C Accuracy: -m0
  Conclusion: CDDA 100%
  Signature: 15724F4BFF678737B093B7B093429CC46E5D5E83
FILE: 07. You're Lucky To Me.flac
  Size: 19748049 Hash: C3E80297FFC85D3E176AC877FE1128F4 Accuracy: -m0
  Conclusion: CDDA 100%
  Signature: 9565CAE2EB8E18DAFEFC558F138AE95FF8372505
FILE: 06. People Will Say We're In Love.flac
  Size: 15636665 Hash: 1B43ADB8793366471D7898EEE2935888 Accuracy: -m0
  Conclusion: CDDA 100%
  Signature: 50B2B86003F2EFEB8AB180505660E331CA943B63
FILE: 05. Be Myself.flac
  Size: 18803733 Hash: 56F5787CE14E8A91B0A52E9AE2C65BC0 Accuracy: -m0
  Conclusion: CDDA 99%
  Signature: 19148D31868AF723CB2A4854586FA5E4ABB5A573
FILE: 04. A New Town Is A Blue Town.flac
  Size: 17869200 Hash: D10DFFE7EF932B024128F7EDBAD49FD5 Accuracy: -m0
  Conclusion: CDDA 99%
  Signature: C9ECAD761DE71C0A491A03FB529758C7122793A5
FILE: 03. I'm Just A Lucky So And So.flac
  Size: 17274720 Hash: AAFE9BC6839BFAE54CA9814412855AFA Accuracy: -m0
  Conclusion: CDDA 100%
  Signature: 01E00A24D22636AD842CAD1F96E2587459554833
FILE: 02. Where Flamingo's Fly.flac
  Size: 15366274 Hash: 622C4BF850F4B8841DB7F04278D5312C Accuracy: -m0
  Conclusion: CDDA 100%
  Signature: 7504833A46E5DB5FE21D7511445FCDF2A648CF33
FILE: 01. Any Place I Hang My Hat Is Home.flac
  Size: 22997852 Hash: 23BFF8EE9A9EB15CDBE71AC53F2677EF Accuracy: -m0
  Conclusion: CDDA 100%
  Signature: B417981AE19F576B1CC787734C5C025C1AFFA2E7

Disk 04

01. If You Go [03:14]
02. If Love Were All [03:07]
03. If Love Were All [03:00]
04. Easy Come, Easy Go [03:46]
05. The Things We Did Last Summer [03:08]
06. Black Is The Color Of My True Love's Hair [02:53]
07. I See Your Face Before Me [02:41]
08. I Remember You [02:11]
09. Softly As In A Morning Sunrise [03:21]
10. Bye Bye Blackbird [02:57]
11. This Time The Dream's On Me [02:21]
12. Dearly Beloved [02:07]
13. Summertime [03:28]
14. Let Me Love You [02:50]
15. When The Sun Comes Out [04:49]
16. All Of You [03:34]
17. The Nearness Of You [04:05]
18. Just Imagine [03:23]

Продолжительность: 00:56:558

Отчёт ЕАС:

Код:

Exact Audio Copy V0.99 prebeta 3 from 28. July 2007

EAC extraction logfile from 28. November 2010, 18:18

Helen Merrill / Complete Helen Merrill on Mercury (Disc 4)

Used drive  : TOSHIBA DVD-ROM SD-R2512   Adapter: 1  ID: 0

Read mode               : Secure
Utilize accurate stream : Yes
Defeat audio cache      : Yes
Make use of C2 pointers : No

Read offset correction                      : 116
Overread into Lead-In and Lead-Out          : No
Fill up missing offset samples with silence : Yes
Delete leading and trailing silent blocks   : No
Null samples used in CRC calculations       : Yes
Used interface                              : Installed external ASPI interface
Gap handling                                : Appended to previous track

Used output format              : User Defined Encoder
Selected bitrate                : 320 kBit/s
Quality                         : High
Add ID3 tag                     : No
Command line compressor         : C:\Program Files\Exact Audio Copy\Flac\flac.exe
Additional command line options : -V -8 -T "artist=%a" -T "title=%t" -T "album=%g" -T "date=%y" -T "tracknumber=%n" -T "genre=%m" %s

TOC of the extracted CD

     Track |   Start  |  Length  | Start sector | End sector
    ---------------------------------------------------------
        1  |  0:00.00 |  3:13.48 |         0    |    14522
        2  |  3:13.48 |  3:07.27 |     14523    |    28574
        3  |  6:21.00 |  3:00.30 |     28575    |    42104
        4  |  9:21.30 |  3:45.65 |     42105    |    59044
        5  | 13:07.20 |  3:07.65 |     59045    |    73134
        6  | 16:15.10 |  2:52.60 |     73135    |    86094
        7  | 19:07.70 |  2:40.60 |     86095    |    98154
        8  | 21:48.55 |  2:10.73 |     98155    |   107977
        9  | 23:59.53 |  3:21.00 |    107978    |   123052
       10  | 27:20.53 |  2:57.20 |    123053    |   136347
       11  | 30:17.73 |  2:21.25 |    136348    |   146947
       12  | 32:39.23 |  2:07.35 |    146948    |   156507
       13  | 34:46.58 |  3:28.22 |    156508    |   172129
       14  | 38:15.05 |  2:49.38 |    172130    |   184842
       15  | 41:04.43 |  4:48.45 |    184843    |   206487
       16  | 45:53.13 |  3:33.50 |    206488    |   222512
       17  | 49:26.63 |  4:04.67 |    222513    |   240879
       18  | 53:31.55 |  3:22.63 |    240880    |   256092

Track  1

     Filename E:\Working Group\01 - If You Go.wav

     Pre-gap length  0:00:02.00

     Peak level 78.2 %
     Track quality 100.0 %
     Test CRC CB95A548
     Copy CRC CB95A548
     Track not present in AccurateRip database
     Copy OK

Track  2

     Filename E:\Working Group\02 - If Love Were All(Alternate Take).wav

     Pre-gap length  0:00:00.65

     Peak level 73.0 %
     Track quality 100.0 %
     Test CRC 5272CEDE
     Copy CRC 5272CEDE
     Track not present in AccurateRip database
     Copy OK

Track  3

     Filename E:\Working Group\03 - If Love Were All.wav

     Pre-gap length  0:00:01.00

     Peak level 71.4 %
     Track quality 100.0 %
     Test CRC B0511366
     Copy CRC B0511366
     Track not present in AccurateRip database
     Copy OK

Track  4

     Filename E:\Working Group\04 - Easy Come, Easy Go.wav

     Pre-gap length  0:00:01.17

     Peak level 75.9 %
     Track quality 100.0 %
     Test CRC EAFE80A3
     Copy CRC EAFE80A3
     Track not present in AccurateRip database
     Copy OK

Track  5

     Filename E:\Working Group\05 - The Things We Did Last Summer.wav

     Pre-gap length  0:00:01.50

     Peak level 81.4 %
     Track quality 100.0 %
     Test CRC 4965E52E
     Copy CRC 4965E52E
     Track not present in AccurateRip database
     Copy OK

Track  6

     Filename E:\Working Group\06 - Black Is the Color of My True Love's Hair.wav

     Pre-gap length  0:00:00.50

     Peak level 76.3 %
     Track quality 100.0 %
     Test CRC 1D01431E
     Copy CRC 1D01431E
     Track not present in AccurateRip database
     Copy OK

Track  7

     Filename E:\Working Group\07 - I See Your Face Before Me.wav

     Pre-gap length  0:00:00.22

     Peak level 71.7 %
     Track quality 100.0 %
     Test CRC FE6046B6
     Copy CRC FE6046B6
     Track not present in AccurateRip database
     Copy OK

Track  8

     Filename E:\Working Group\08 - I Remember You.wav

     Pre-gap length  0:00:01.32

     Peak level 98.5 %
     Track quality 100.0 %
     Test CRC 020EDDED
     Copy CRC 020EDDED
     Track not present in AccurateRip database
     Copy OK

Track  9

     Filename E:\Working Group\09 - Softly, As in a Morning Sunrise.wav

     Pre-gap length  0:00:01.38

     Peak level 81.0 %
     Track quality 100.0 %
     Test CRC A34D6F73
     Copy CRC A34D6F73
     Track not present in AccurateRip database
     Copy OK

Track 10

     Filename E:\Working Group\10 - Bye Bye Blackbird.wav

     Pre-gap length  0:00:01.73

     Peak level 91.8 %
     Track quality 100.0 %
     Test CRC 2AD462EC
     Copy CRC 2AD462EC
     Track not present in AccurateRip database
     Copy OK

Track 11

     Filename E:\Working Group\11 - This Time the Dream's on Me.wav

     Pre-gap length  0:00:00.60

     Peak level 85.9 %
     Track quality 100.0 %
     Test CRC CDC94E25
     Copy CRC CDC94E25
     Track not present in AccurateRip database
     Copy OK

Track 12

     Filename E:\Working Group\12 - Dearly Beloved.wav

     Pre-gap length  0:00:01.43

     Peak level 93.7 %
     Track quality 100.0 %
     Test CRC DAAAD5CD
     Copy CRC DAAAD5CD
     Track not present in AccurateRip database
     Copy OK

Track 13

     Filename E:\Working Group\13 - Summertime.wav

     Pre-gap length  0:00:01.63

     Peak level 80.7 %
     Track quality 100.0 %
     Test CRC F32E14FC
     Copy CRC F32E14FC
     Track not present in AccurateRip database
     Copy OK

Track 14

     Filename E:\Working Group\14 - Let Me Love You.wav

     Pre-gap length  0:00:01.17

     Peak level 79.5 %
     Track quality 100.0 %
     Test CRC 97D557B9
     Copy CRC 97D557B9
     Track not present in AccurateRip database
     Copy OK

Track 15

     Filename E:\Working Group\15 - When the Sun Comes Out.wav

     Pre-gap length  0:00:01.43

     Peak level 71.1 %
     Track quality 100.0 %
     Test CRC A4112099
     Copy CRC A4112099
     Track not present in AccurateRip database
     Copy OK

Track 16

     Filename E:\Working Group\16 - All of You.wav

     Pre-gap length  0:00:01.40

     Peak level 77.6 %
     Track quality 100.0 %
     Test CRC D6ABCEF1
     Copy CRC D6ABCEF1
     Track not present in AccurateRip database
     Copy OK

Track 17

     Filename E:\Working Group\17 - The Nearness of You.wav

     Pre-gap length  0:00:01.40

     Peak level 63.1 %
     Track quality 100.0 %
     Test CRC 3649ECC6
     Copy CRC 3649ECC6
     Track not present in AccurateRip database
     Copy OK

Track 18

     Filename E:\Working Group\18 - Just Imagine.wav

     Pre-gap length  0:00:01.35

     Peak level 87.5 %
     Track quality 100.0 %
     Test CRC 0198F21D
     Copy CRC 0198F21D
     Track not present in AccurateRip database
     Copy OK

None of the tracks are present in the AccurateRip database

No errors occurred

End of status report

Отчёт auCDtect Task manager:

Код:

-----------------------

DON'T MODIFY THIS FILE

-----------------------

PERFORMER: auCDtect Task Manager, ver. 1.5.1RC6 build 1.5.1.7
Copyright (c) 2008-2010 y-soft. All rights reserved
http://y-soft.org

ANALYZER: auCDtect: CD records authenticity detector, version 0.8.2
Copyright (c) 2004 Oleg Berngardt. All rights reserved.
Copyright (c) 2004 Alexander Djourik. All rights reserved.

FILE: 18. Just Imagine.flac
  Size: 15094461 Hash: D88F57308998B2C1DA19590CCB16559F Accuracy: -m0
  Conclusion: CDDA 100%
  Signature: 28F600D57364735C8549F505A915CFA58C7E5083
FILE: 17. The Nearness Of You.flac
  Size: 17082789 Hash: E4D5B552394FA54F3FD4E5BBDCFF0FF8 Accuracy: -m0
  Conclusion: CDDA 100%
  Signature: 5DDA7BA7CFD44302C5A6561BF8F22F552F3C19E8
FILE: 16. All Of You.flac
  Size: 15866535 Hash: 84DA866B54EA3AFED2A750FBBFAA9B2B Accuracy: -m0
  Conclusion: CDDA 99%
  Signature: BE62D977D8BD8543E0367F7874AD7FFAC5180743
FILE: 15. When The Sun Comes Out.flac
  Size: 20676432 Hash: 02C7CBD088BC05E951F883FCC184CFC4 Accuracy: -m0
  Conclusion: CDDA 100%
  Signature: A99791D842D66878E3DF4DD1BE4F74945DA475BC
FILE: 14. Let Me Love You.flac
  Size: 11656065 Hash: 07D0742A1058170E75FA9D0358393EEE Accuracy: -m0
  Conclusion: CDDA 100%
  Signature: 49F41FE6329A0DC44ECC502811C20E8BCE2A0BF3
FILE: 13. Summertime.flac
  Size: 14996179 Hash: 2ED4BF49FE536CCB745EB83F0E9730EB Accuracy: -m0
  Conclusion: CDDA 100%
  Signature: 0D5D90728109C2E29BA37C65650832151E87569C
FILE: 12. Dearly Beloved.flac
  Size: 9496530 Hash: AF3448F10879293A645A659B65D982C0 Accuracy: -m0
  Conclusion: CDDA 100%
  Signature: A77FEBBB193586F0154D335152FE6E56AC2C05B7
FILE: 11. This Time The Dream's On Me.flac
  Size: 10206944 Hash: 43CC0EED787B7E29ED8E329E78151438 Accuracy: -m0
  Conclusion: CDDA 100%
  Signature: D62EEA3BB9C6FA32AE7CB74538EA79337021BD33
FILE: 10. Bye Bye Blackbird.flac
  Size: 13354627 Hash: 6265F68B83F20748C21F057CE9F8262D Accuracy: -m0
  Conclusion: CDDA 100%
  Signature: 9E7ECF57792DD214ACCF32097CC57FB51FB25AF9
FILE: 09. Softly As In A Morning Sunrise.flac
  Size: 14315499 Hash: 6B00CC7A59EAF111723E46D892C531E2 Accuracy: -m0
  Conclusion: CDDA 100%
  Signature: 44B3160BC85C66CF2675A7AF1529CC3096D7F9C4
FILE: 08. I Remember You.flac
  Size: 10284762 Hash: 0437A5D4DEEA44BA8FBDCF8C01C83C5B Accuracy: -m0
  Conclusion: CDDA 100%
  Signature: 1C1DC15812E3E44CCD961BE76697D98B93BF923A
FILE: 07. I See Your Face Before Me.flac
  Size: 14720110 Hash: C82EB50B1437F901CAC0E1B63A1C7B7C Accuracy: -m0
  Conclusion: CDDA 100%
  Signature: 55937EAB7122DE6B9C905A0377F1E766078D0440
FILE: 06. Black Is The Color Of My True Love's Hair.flac
  Size: 15080105 Hash: 0CA3550A3448AD67F5B5E7A5EEDA7FEE Accuracy: -m0
  Conclusion: CDDA 100%
  Signature: 0EC97548C3E57A9171BD6AECDA1DC9A18EF14E27
FILE: 05. The Things We Did Last Summer.flac
  Size: 16612962 Hash: B195A87B6F9BD222D5D3682A5CA0F11A Accuracy: -m0
  Conclusion: CDDA 100%
  Signature: 2C99CE343D295316909C810183AA514084B28C80
FILE: 04. Easy Come, Easy Go.flac
  Size: 19939658 Hash: A365027CE9D30BA61C89770ADC0BE77B Accuracy: -m0
  Conclusion: CDDA 100%
  Signature: 28A33EADA44AEE982B45158742145E6DFCB2C149
FILE: 03. If Love Were All.flac
  Size: 16995323 Hash: 6814875E1871C081B04ADA5F4BE8E18F Accuracy: -m0
  Conclusion: CDDA 100%
  Signature: B11D8B8013DCE36E5D4E91507E5D042414B7C6F6
FILE: 02. If Love Were All.flac
  Size: 16688048 Hash: 76B0529057CCD00F681935BC19B02554 Accuracy: -m0
  Conclusion: CDDA 100%
  Signature: F01F63B5181D2AED36319B4B28F55A6702771AFB
FILE: 01. If You Go.flac
  Size: 17533453 Hash: 3E3C89F9D4570610FC2A29D77A2FB119 Accuracy: -m0
  Conclusion: CDDA 100%
  Signature: 5DFB336B67B9E18AC4FE6770E130B661F4E64D9D
Детали торрента:
Название:Helen Merrill - The Complete Helen Merrill On Mercury (4CD Box Set) (1986) [FLAC|Lossless]<Jazz Vocal>
Дата добавления:20 Мар 2013 19:54:30
Размер:1,05 GB
Раздают:2
Качают:0
Форум:Jazz (Lossless)

All rights reserved © 2015-2019