TORRENTS45.XYZ

Скачать Диномама 3D / Dino Time (2012) DVDRip [H.264]


Диномама 3D / Dino Time
Страны: США , Корея Южная
Слоган: «В Юрский период на машине времени»
Жанры: мультфильм, комедия, приключения, семейный, ...
Продолжительность: 01:21:55
Перевод: Профессиональный (дублированный)

Режиссер: Юн-сок Чхве, Джон Кафка
Сценарий: Адам Бичен, Джеймс Греко, Джа Ву Парк, ...
Продюсер: Дэвид Ловегрен, Джа Ву Парк, Роберт Абрамофф, ...
Композитор : Стивен Бартон
Монтаж: Дэвид Б. Барон

Актеры: Джейн Линч / Jane Lynch (Sue), Памела Адлон / Pamela Adlon (Ernie), Роб Шнайдер / Rob Schneider (Dodger), Стивен Болдуин / Stephen Baldwin (Surly), Тара Стронг / Tara Strong (Julia), Мелани Гриффит / Melanie Griffith (Tyra), Уильям Болдуин / William Baldwin (Sarco), Юрий Ловенталь / Yuri Lowenthal (Max)


Описание: Эрни, его сестра Джулия и лучший друг Макс — неразлучная троица. Однажды, друзья без спроса залезли в странное устройство, которое сконструировал папа Макса, и случайно нажали кнопку запуска. Устройство оказалось машиной времени, и ребята очутились в Юрском периоде, прямо в гнезде Тираннозавра. Но вот радость: самка гигантского ящера приняла ребят за своих детенышей. Но не все, конечно, так безоблачно в мире хищников. Кое-кто мечтает полакомиться непрошеными гостями! Друзьям нужно немедленно уносить ноги и подумать о возвращении. Но как это сделать, если важная деталь машины исчезла?

Сборы в России: $721 787
Зрители: Польша 150.4 тыс. , Россия 104.6 тыс. , Турция 68.2 тыс.
Премьера (мир): 30 ноября 2012, ...
Премьера (РФ): 31 января 2013, «Наше Кино» 3D
Релиз на DVD: 28 февраля 2013, «Флагман-Трейд», ...
Релиз на Blu-Ray: 28 февраля 2013, «Флагман-Трейд», ...
Рейтинг MPAA: Нет возрастных ограничений

Релиз группы: by almikl ® &
Качество: DVDRip-AVC
Формат: MKV
Видео кодек: H.264 (AVC)
Аудио кодек: AC3
Видео: 720x394 (16:9), 25.000 fps, AVC, 2 006 Kbps
Аудио #1: AC3, 384 Kbps, 48.0 KHz, 6 ch

MediaInfo

Код: выделить все
General
Complete name                    : Dinomama.2012.DVDRip-AVC.h264.almikl.mkv
Format                           : Matroska
File size                        : 1.37 GiB
Duration                         : 1h 21mn
Overall bit rate                 : 2 392 Kbps
Encoded date                     : UTC 2013-03-04 16:03:04
Writing application              : mkvmerge v6.0.0 ('Coming Up For Air') built on Jan 20 2013 09:52:00
Writing library                  : libebml v1.3.0 + libmatroska v1.4.0

Video
ID                               : 1
Format                           : AVC
Format/Info                      : Advanced Video Codec
Format profile                   : High@L4.1
Format settings, CABAC           : Yes
Format settings, ReFrames        : 6 frames
Muxing mode                      : Container profile=Unknown@4.1
Codec ID                         : V_MPEG4/ISO/AVC
Duration                         : 1h 21mn
Bit rate                         : 2 006 Kbps
Width                            : 720 pixels
Height                           : 394 pixels
Display aspect ratio             : 16:9
Frame rate                       : 25.000 fps
Color space                      : YUV
Chroma subsampling               : 4:2:0
Bit depth                        : 8 bits
Scan type                        : Progressive
Bits/(Pixel*Frame)               : 0.283
Stream size                      : 1.12 GiB (82%)
Writing library                  : x264 core 129 r2245 bc13772
Encoding settings                : cabac=1 / ref=6 / deblock=1:-1:-1 / analyse=0x3:0x113 / me=umh / subme=10 / psy=1 / psy_rd=1.00:0.15 / mixed_ref=1 / me_range=32 / chroma_me=1 / trellis=2 / 8x8dct=1 / cqm=0 / deadzone=21,11 / fast_pskip=1 / chroma_qp_offset=-3 / threads=6 / lookahead_threads=1 / sliced_threads=0 / nr=0 / decimate=1 / interlaced=0 / bluray_compat=0 / constrained_intra=0 / bframes=10 / b_pyramid=2 / b_adapt=2 / b_bias=0 / direct=1 / weightb=1 / open_gop=0 / weightp=2 / keyint=250 / keyint_min=25 / scenecut=40 / intra_refresh=0 / rc_lookahead=40 / rc=2pass / mbtree=1 / bitrate=2006 / ratetol=1.0 / qcomp=0.60 / qpmin=10 / qpmax=51 / qpstep=4 / cplxblur=20.0 / qblur=0.5 / ip_ratio=1.40 / aq=1:1.00

Audio
ID                               : 2
Format                           : AC-3
Format/Info                      : Audio Coding 3
Mode extension                   : CM (complete main)
Codec ID                         : A_AC3
Duration                         : 1h 21mn
Bit rate mode                    : Constant
Bit rate                         : 384 Kbps
Channel(s)                       : 6 channels
Channel positions                : Front: L C R, Side: L R, LFE
Sampling rate                    : 48.0 KHz
Bit depth                        : 16 bits
Stream size                      : 225 MiB (16%)
Скриншоты:

Смотреть Online

Детали торрента:
Название:Диномама 3D / Dino Time (2012) DVDRip [H.264]
Дата добавления:11 Янв 2019 12:58:53
Размер:1,37 GB
Раздают:1
Качают:1
Форум:Зарубежные Мультфильмы (HD*Rip/LQ, DVDRip, SATRip, VHSRip)

All rights reserved © 2015-2019