TORRENTS45.XYZ

Скачать Полный абзац / Whole Lotta Sole / Stand Off (2011) DVDRip [EN]


Полный абзац / Whole Lotta Sole / Stand Off (2011) DVDRip [EN]
Русское название: Полный абзац
Оригинальное название: Whole Lotta Sole / Stand Off
Год выпуска: 2011
Жанр: Драма, Комедия

Описание фильма:
Дело происходит в Северной Ирландии. В центре сюжета — молодой бездельник Джимбо, ступивший на скользкую дорожку азартных игр. Дебют вышел не слишком удачным: Джимбо проигрался в пух и прах, и теперь ему нужно рассчитаться с долгами. Не придумав ничего лучше, парень решает ограбить рыбную лавку, но и тут Джимбо ждут осложнения: предприятие принимает серьезный оборот, и горе-грабителю приходится взять заложников.

Режиссер: Терри Джордж
Актеры: Брендан Фрейзер, Колм Мини, Мартин МакКанн, Йайа ДаКоста, Дэвид О’Хара

Продолжительность: 01:29:19
Перевод: Отсутствует
Язык: Английский



Видеокодек: Xvid
Битрейт видео: ~1 741 Kbps
Размер кадра: 720x384
Качество видео: DVDRip
Аудиокодек: AC3 5.1
Битрейт аудио: 448 Kbps
Сэмпл: Ссылка

Screenlist

MediaInfo

Stand.Off.2013.DVDRip.XviD.AC3-PTpOWeR\Stand.Off.2013.DVDRip.XviD.AC3-PTpOWeR.avi
Format : AVI
Format/Info : Audio Video Interleave
File size : 1.37 GiB
Duration : 1h 29mn
Overall bit rate : 2 199 Kbps

Video
ID : 0
Format : MPEG-4 Visual
Format profile : Simple@L3
Format settings, BVOP : No
Format settings, QPel : No
Format settings, GMC : No warppoints
Format settings, Matrix : Default (H.263)
Codec ID : XVID
Codec ID/Hint : XviD
Duration : 1h 29mn
Source duration : 1h 29mn
Bit rate : 1 741 Kbps
Width : 720 pixels
Height : 384 pixels
Display aspect ratio : 1.85:1
Frame rate : 23.976 fps
Color space : YUV
Chroma subsampling : 4:2:0
Bit depth : 8 bits
Scan type : Progressive
Compression mode : Lossy
Bits/(Pixel*Frame) : 0.263
Stream size : 1.09 GiB (79%)
Writing library : XviD 1.1.2 (UTC 2006-11-01)

Audio
ID : 1
Format : AC-3
Format/Info : Audio Coding 3
Mode extension : CM (complete main)
Format settings, Endianness : Big
Codec ID : 2000
Duration : 1h 29mn
Bit rate mode : Constant
Bit rate : 448 Kbps
Channel(s) : 6 channels
Channel positions : Front: L C R, Side: L R, LFE
Sampling rate : 48.0 KHz
Bit depth : 16 bits
Compression mode : Lossy
Stream size : 286 MiB (20%)
Alignment : Aligned on interleaves
Interleave, duration : 32 ms (0.77 video frame)
Interleave, preload duration : 704 ms
Скриншоты:


Смотреть Online

http://moonwalk.cc/video/f7e32b909ff7c20b/iframe
Детали торрента:
Название:Полный абзац / Whole Lotta Sole / Stand Off (2011) DVDRip [EN]
Дата добавления:17 Мар 2013 16:11:10
Размер:1,37 GB
Раздают:
Качают:0
Форум:Фильмы в оригинале

All rights reserved © 2015-2018