TORRENTS45.XYZ

Скачать Helloween - Straight Out Of Hell (2013) [FLAC 2.0 24/96 | tracks (Vinyl-Rip)]<Power Metal>


Helloween - Straight Out Of Hell (2013)
Год: 2013
Жанр: Power Metal
Продолжительность: 01:00:37
Страна: Germany
Кодек: FLAC 2.0 24/96

Треклист:]

A1. Nabataea (7:03)
A2. World of War (4:58)
A3. Live Now! (3:11)
B1. Far from the Stars (4:43)
B2. Burning Sun (5:35)
B3. Waiting for the Thunder (3:55)
C1. Hold Me in Your Arms (5:11)
C2. Wanna Be God (2:02)
C3. Straight Out of Hell (4:35)
C4. Asshole (4:10)
D1. Years (4:24)
D2. Make Fire Catch the Fly (4:24)
D3. Church Breaks Down (6:09)
Автор рипа: annihilazion
Mint double vinyl
Turntable: Rega RP1
Cartridge: AT 120 E
Preamp: CA 540P
ADC: M-Audio
Software: Sound Forge
No postprocessing applied

Дополнительная информация:

Отчет MediaInfo:

Общее
Полное имя : C:\Users\alexc_000\Desktop\Helloween - Straight Out Of Hell (2013) Vinyl-Rip [24-96]\2013-02-20_213734.jpg
Формат : JPEG
Размер файла : 423 Кбайт

Изображения
Формат : JPEG
Ширина : 1680 пикселей
Высота : 1018 пикселей
Цветовое пространство : YUV
Субдискретизация насыщенности : 4:2:0
Битовая глубина : 8 бит
Метод сжатия : С потерями
Размер потока : 423 Кбайт (100%)

Общее
Полное имя : C:\Users\alexc_000\Desktop\Helloween - Straight Out Of Hell (2013) Vinyl-Rip [24-96]\A1 Nabataea.flac
Формат : FLAC
Формат/Информация : Free Lossless Audio Codec
Размер файла : 152 Мбайт
Продолжительность : 7 м. 1 с.
Режим общего битрейта : Переменный
Общий поток : 3020 Кбит/сек

Аудио
Формат : FLAC
Формат/Информация : Free Lossless Audio Codec
Продолжительность : 7 м. 1 с.
Вид битрейта : Переменный
Битрейт : 3020 Кбит/сек
Каналы : 2 канала
Частота : 96,0 КГц
Битовая глубина : 24 бит
Размер потока : 152 Мбайт (100%)
Библиотека кодирования : libFLAC 1.2.1 (UTC 2007-09-17)

Общее
Полное имя : C:\Users\alexc_000\Desktop\Helloween - Straight Out Of Hell (2013) Vinyl-Rip [24-96]\A2 World Of War.flac
Формат : FLAC
Формат/Информация : Free Lossless Audio Codec
Размер файла : 109 Мбайт
Продолжительность : 4 м. 56 с.
Режим общего битрейта : Переменный
Общий поток : 3070 Кбит/сек

Аудио
Формат : FLAC
Формат/Информация : Free Lossless Audio Codec
Продолжительность : 4 м. 56 с.
Вид битрейта : Переменный
Битрейт : 3070 Кбит/сек
Каналы : 2 канала
Частота : 96,0 КГц
Битовая глубина : 24 бит
Размер потока : 109 Мбайт (100%)
Библиотека кодирования : libFLAC 1.2.1 (UTC 2007-09-17)

Общее
Полное имя : C:\Users\alexc_000\Desktop\Helloween - Straight Out Of Hell (2013) Vinyl-Rip [24-96]\A3 Live Now!.flac
Формат : FLAC
Формат/Информация : Free Lossless Audio Codec
Размер файла : 70,9 Мбайт
Продолжительность : 3 м. 14 с.
Режим общего битрейта : Переменный
Общий поток : 3056 Кбит/сек

Аудио
Формат : FLAC
Формат/Информация : Free Lossless Audio Codec
Продолжительность : 3 м. 14 с.
Вид битрейта : Переменный
Битрейт : 3056 Кбит/сек
Каналы : 2 канала
Частота : 96,0 КГц
Битовая глубина : 24 бит
Размер потока : 70,9 Мбайт (100%)
Библиотека кодирования : libFLAC 1.2.1 (UTC 2007-09-17)

Общее
Полное имя : C:\Users\alexc_000\Desktop\Helloween - Straight Out Of Hell (2013) Vinyl-Rip [24-96]\B1 Far From The Stars.flac
Формат : FLAC
Формат/Информация : Free Lossless Audio Codec
Размер файла : 105 Мбайт
Продолжительность : 4 м. 47 с.
Режим общего битрейта : Переменный
Общий поток : 3051 Кбит/сек

Аудио
Формат : FLAC
Формат/Информация : Free Lossless Audio Codec
Продолжительность : 4 м. 47 с.
Вид битрейта : Переменный
Битрейт : 3051 Кбит/сек
Каналы : 2 канала
Частота : 96,0 КГц
Битовая глубина : 24 бит
Размер потока : 105 Мбайт (100%)
Библиотека кодирования : libFLAC 1.2.1 (UTC 2007-09-17)

Общее
Полное имя : C:\Users\alexc_000\Desktop\Helloween - Straight Out Of Hell (2013) Vinyl-Rip [24-96]\B2 Burning Sun.flac
Формат : FLAC
Формат/Информация : Free Lossless Audio Codec
Размер файла : 123 Мбайт
Продолжительность : 5 м. 34 с.
Режим общего битрейта : Переменный
Общий поток : 3077 Кбит/сек

Аудио
Формат : FLAC
Формат/Информация : Free Lossless Audio Codec
Продолжительность : 5 м. 34 с.
Вид битрейта : Переменный
Битрейт : 3077 Кбит/сек
Каналы : 2 канала
Частота : 96,0 КГц
Битовая глубина : 24 бит
Размер потока : 123 Мбайт (100%)
Библиотека кодирования : libFLAC 1.2.1 (UTC 2007-09-17)

Общее
Полное имя : C:\Users\alexc_000\Desktop\Helloween - Straight Out Of Hell (2013) Vinyl-Rip [24-96]\B3 Waiting For The Thunder.flac
Формат : FLAC
Формат/Информация : Free Lossless Audio Codec
Размер файла : 86,9 Мбайт
Продолжительность : 3 м. 56 с.
Режим общего битрейта : Переменный
Общий поток : 3081 Кбит/сек

Аудио
Формат : FLAC
Формат/Информация : Free Lossless Audio Codec
Продолжительность : 3 м. 56 с.
Вид битрейта : Переменный
Битрейт : 3081 Кбит/сек
Каналы : 2 канала
Частота : 96,0 КГц
Битовая глубина : 24 бит
Размер потока : 86,9 Мбайт (100%)
Библиотека кодирования : libFLAC 1.2.1 (UTC 2007-09-17)

Общее
Полное имя : C:\Users\alexc_000\Desktop\Helloween - Straight Out Of Hell (2013) Vinyl-Rip [24-96]\C1 Hold Me In Your Arms.flac
Формат : FLAC
Формат/Информация : Free Lossless Audio Codec
Размер файла : 106 Мбайт
Продолжительность : 5 м. 14 с.
Режим общего битрейта : Переменный
Общий поток : 2828 Кбит/сек

Аудио
Формат : FLAC
Формат/Информация : Free Lossless Audio Codec
Продолжительность : 5 м. 14 с.
Вид битрейта : Переменный
Битрейт : 2828 Кбит/сек
Каналы : 2 канала
Частота : 96,0 КГц
Битовая глубина : 24 бит
Размер потока : 106 Мбайт (100%)
Библиотека кодирования : libFLAC 1.2.1 (UTC 2007-09-17)

Общее
Полное имя : C:\Users\alexc_000\Desktop\Helloween - Straight Out Of Hell (2013) Vinyl-Rip [24-96]\C2 Wanna Be God.flac
Формат : FLAC
Формат/Информация : Free Lossless Audio Codec
Размер файла : 42,6 Мбайт
Продолжительность : 2 м. 3 с.
Режим общего битрейта : Переменный
Общий поток : 2896 Кбит/сек

Аудио
Формат : FLAC
Формат/Информация : Free Lossless Audio Codec
Продолжительность : 2 м. 3 с.
Вид битрейта : Переменный
Битрейт : 2896 Кбит/сек
Каналы : 2 канала
Частота : 96,0 КГц
Битовая глубина : 24 бит
Размер потока : 42,6 Мбайт (100%)
Библиотека кодирования : libFLAC 1.2.1 (UTC 2007-09-17)

Общее
Полное имя : C:\Users\alexc_000\Desktop\Helloween - Straight Out Of Hell (2013) Vinyl-Rip [24-96]\C3 Straight Out Of Hell.flac
Формат : FLAC
Формат/Информация : Free Lossless Audio Codec
Размер файла : 99,7 Мбайт
Продолжительность : 4 м. 34 с.
Режим общего битрейта : Переменный
Общий поток : 3044 Кбит/сек

Аудио
Формат : FLAC
Формат/Информация : Free Lossless Audio Codec
Продолжительность : 4 м. 34 с.
Вид битрейта : Переменный
Битрейт : 3044 Кбит/сек
Каналы : 2 канала
Частота : 96,0 КГц
Битовая глубина : 24 бит
Размер потока : 99,7 Мбайт (100%)
Библиотека кодирования : libFLAC 1.2.1 (UTC 2007-09-17)

Общее
Полное имя : C:\Users\alexc_000\Desktop\Helloween - Straight Out Of Hell (2013) Vinyl-Rip [24-96]\C4 Asshole.flac
Формат : FLAC
Формат/Информация : Free Lossless Audio Codec
Размер файла : 89,6 Мбайт
Продолжительность : 4 м. 10 с.
Режим общего битрейта : Переменный
Общий поток : 3005 Кбит/сек

Аудио
Формат : FLAC
Формат/Информация : Free Lossless Audio Codec
Продолжительность : 4 м. 10 с.
Вид битрейта : Переменный
Битрейт : 3005 Кбит/сек
Каналы : 2 канала
Частота : 96,0 КГц
Битовая глубина : 24 бит
Размер потока : 89,6 Мбайт (100%)
Библиотека кодирования : libFLAC 1.2.1 (UTC 2007-09-17)

Общее
Полное имя : C:\Users\alexc_000\Desktop\Helloween - Straight Out Of Hell (2013) Vinyl-Rip [24-96]\D1 Years.flac
Формат : FLAC
Формат/Информация : Free Lossless Audio Codec
Размер файла : 96,3 Мбайт
Продолжительность : 4 м. 31 с.
Режим общего битрейта : Переменный
Общий поток : 2978 Кбит/сек

Аудио
Формат : FLAC
Формат/Информация : Free Lossless Audio Codec
Продолжительность : 4 м. 31 с.
Вид битрейта : Переменный
Битрейт : 2978 Кбит/сек
Каналы : 2 канала
Частота : 96,0 КГц
Битовая глубина : 24 бит
Размер потока : 96,3 Мбайт (100%)
Библиотека кодирования : libFLAC 1.2.1 (UTC 2007-09-17)

Общее
Полное имя : C:\Users\alexc_000\Desktop\Helloween - Straight Out Of Hell (2013) Vinyl-Rip [24-96]\D2 Make Fire Catch The Fly.flac
Формат : FLAC
Формат/Информация : Free Lossless Audio Codec
Размер файла : 94,7 Мбайт
Продолжительность : 4 м. 23 с.
Режим общего битрейта : Переменный
Общий поток : 3016 Кбит/сек

Аудио
Формат : FLAC
Формат/Информация : Free Lossless Audio Codec
Продолжительность : 4 м. 23 с.
Вид битрейта : Переменный
Битрейт : 3016 Кбит/сек
Каналы : 2 канала
Частота : 96,0 КГц
Битовая глубина : 24 бит
Размер потока : 94,7 Мбайт (100%)
Библиотека кодирования : libFLAC 1.2.1 (UTC 2007-09-17)

Общее
Полное имя : C:\Users\alexc_000\Desktop\Helloween - Straight Out Of Hell (2013) Vinyl-Rip [24-96]\D3 Church Breaks Down.flac
Формат : FLAC
Формат/Информация : Free Lossless Audio Codec
Размер файла : 131 Мбайт
Продолжительность : 6 м. 9 с.
Режим общего битрейта : Переменный
Общий поток : 2967 Кбит/сек

Аудио
Формат : FLAC
Формат/Информация : Free Lossless Audio Codec
Продолжительность : 6 м. 9 с.
Вид битрейта : Переменный
Битрейт : 2967 Кбит/сек
Каналы : 2 канала
Частота : 96,0 КГц
Битовая глубина : 24 бит
Размер потока : 131 Мбайт (100%)
Библиотека кодирования : libFLAC 1.2.1 (UTC 2007-09-17)

Общее
Полное имя : C:\Users\alexc_000\Desktop\Helloween - Straight Out Of Hell (2013) Vinyl-Rip [24-96]\Thumbs.db
Размер файла : 15,5 Кбайт
Детали торрента:
Название:Helloween - Straight Out Of Hell (2013) [FLAC 2.0 24/96 | tracks (Vinyl-Rip)]<Power Metal>
Дата добавления:26 Фев 2013 23:00:11
Размер:1,27 GB
Раздают:2
Качают:0
Форум:Vinyl-Rip и Hand-Made

All rights reserved © 2015-2018