TORRENTS45.XYZ

Скачать Муви 43 / Movie 43 (2013) BDRip [ATV2 | H.264/720p]


Муви 43 / Movie 43 (2013) BDRip
«Самая отвязная комедия Нового года»

Общая информация

Русское название: Муви 43
Оригинальное название: Movie 43
Год: 2013
Страна/Студия: США / © Relativity Media, Virgin Produced, GreeneStreet Films
Жанр: драма, приключения
Время: 1:39:30
Перевод: Русский дублированный [BD RU], одноголосый закадровый (Д.Пучков aka Goblin)
Субтитры: Отсутствуют
Язык субтитров: -
Навигация: по главам (с изображениями)
Рейтинг MPAA -R
Создатели и актеры

Режиссёр: Стивен Брилл, Питер Фаррелли, Боб Оденкирк
Сценарий: Уилл Кэрло, Стив Бэйкер, Джейкоб Флейшер
В ролях: Холли Берри, Джерард Батлер, Анна Фэрис, Хью Джекман, Джонни Ноксвил, Кристофер Минц-Плассе, Шонн Уильям Скотт, Эмма Стоун, Кейт Уинслет, Деннис Куэйд

Описание: 25 cуперзвезд первой величины - в комедийном проекте, который состоит из двух десятков мини-новелл с нескончаемым потоком шуток, гэгов, острот и пародий, о страстях и страстишках человеческих.

Дата мировой премьеры: 11 января 2013
Дата российской премьеры: 1 января 2013, «Парадиз»
Дата выхода DVD релиза: 28 февраля 2013, «CP Дистрибуция»
Дата выхода Blu-Ray релиза: 28 февраля 2013, «CP Дистрибуция»
HD 720p

Видео: H.264, 24.000 fps, ~ 6000 Кбит/сек, 1280x720 (16:9)
Аудио:
* ААС 2.0 180 kbps - Русский дублированный [BD RU]
* АС3 5.1 640 kbps - Русский дублированный [BD RU]
* ААС 2.0 172 kbps - Русский одноголосый закадровый (Д.Пучков aka Goblin)
* АС3 5.1 640 kbps - Русский одноголосый закадровый (Д.Пучков aka Goblin)

Субтитры:
* 3GPP Text - Отсутствуют

Media Info

Код:

Общее
Полное имя : /Users/gekkas/Movies/CREATE/Movie 43.2013 (HD).m4v
Формат : MPEG-4
Идентификатор кодека : M4V
Размер файла : 5,30 Гбайт
Продолжительность : 1 ч. 39 м.
Режим общего битрейта : Переменный
Общий поток : 7628 Кбит/сек
Название фильма : Муви 43
Исполнитель : Luke Ebrel
Жанр : Drama & Comedy
Дата записи : UTC 2013-01-25 08:00:00
Дата кодирования : UTC 2013-02-26 09:08:16
Дата пометки : UTC 2013-02-26 09:58:40
Правообладатель : © Relativity Media, Virgin Produced, GreeneStreet Films
Обложка : Yes
sonm : Movie 43
desc : 25 cуперзвезд первой величины — в комедийном проекте, который состоит из двух десятков мини-новелл с нескончаемым потоком шуток, гэгов, острот и пародий, о страстях и страстишках человеческих.
ldes : 25 cуперзвезд первой величины — в комедийном проекте, который состоит из двух десятков мини-новелл с нескончаемым потоком шуток, гэгов, острот и пародий, о страстях и страстишках человеческих.
hdvd : 1
stik : 9
rtng : 0
cnID : 645224
xid : Apple:vendor_id:2013-645224
iTunEXTC : mpaa|R|400|
iTunMOVI : <?xml version="1.0" encoding="UTF-8"?> / <!DOCTYPE plist PUBLIC "-//Apple//DTD PLIST 1.0//EN" "http://www.apple.com/DTDs/PropertyList-1.0.dtd"> / <plist version="1.0"> / <dict> /   <key>cast</key> /   <array> /     <dict> /       <key>name</key> /       <string>Эдгар Морайс</string> /     </dict> /     <dict> /       <key>name</key> /       <string>Оливер Мюрхэд</string> /     </dict> /     <dict> /       <key>name</key> /       <string>Пиа Мечлер</string> /     </dict> /     <dict> /       <key>name</key> /       <string>Оливия Тирлби</string> /     </dict> /     <dict> /       <key>name</key> /       <string>Стивен Уэбер</string> /     </dict> /     <dict> /       <key>name</key> /       <string>Ричард Риле</string> /     </dict> /     <dict> /       <key>name</key> /       <string>Крис Лемке</string> /     </dict> /     <dict> /       <key>name</key> /       <string>Лу Тэйлор Пуччи</string> /     </dict> /     <dict> /       <key>name</key> /       <string>Джон Робинсон</string> /     </dict> /     <dict> /       <key>name</key> /       <string>Лорна Скотт</string> /     </dict> /   </array> /   <key>directors</key> /   <array> /     <dict> /       <key>name</key> /       <string>Люк Эбрел</string> /     </dict> /   </array> /   <key>producers</key> /   <array> /     <dict> /       <key>name</key> /       <string>Люк Эбрел</string> /     </dict> /     <dict> /       <key>name</key> /       <string>Каси Любин</string> /     </dict> /     <dict> /       <key>name</key> /       <string>Стивен С. Холмс</string> /     </dict> /   </array> /   <key>screenwriters</key> /   <array> /     <dict> /       <key>name</key> /       <string>Люк Эбрел</string> /     </dict> /     <dict> /       <key>name</key> /       <string>Эдгар Морайс</string> /     </dict> /   </array> /   <key>studio</key> /   <string>© Relativity Media, Virgin Produced, GreeneStreet Films </string> / </dict> / </plist>
Видео #1
Идентификатор : 1
Формат : AVC
Формат/Информация : Advanced Video Codec
Профиль формата : High@L4.1
Параметр CABAC формата : Да
Параметр ReFrames формата : 9 кадров
Идентификатор кодека : avc1
Идентификатор кодека/Информация : Advanced Video Coding
Продолжительность : 1 ч. 39 м.
Битрейт : 6000 Кбит/сек
Максимальный битрейт : 21,2 Мбит/сек
Ширина : 1280 пикселей
Высота : 720 пикселей
Соотношение сторон : 16:9
Режим частоты кадров : Постоянный
Частота кадров : 24,000 кадра/сек
Цветовое пространство : YUV
Субдискретизация насыщенности : 4:2:0
Битовая глубина : 8 бит
Тип развёртки : Прогрессивная
Бит/(Пиксели*Кадры) : 0.271
Размер потока : 4,16 Гбайт (79%)
Библиотека кодирования : x264 core 129 r2245 bc13772
Настройки программы : cabac=1 / ref=9 / deblock=1:-3:-3 / analyse=0x3:0x133 / me=umh / subme=11 / psy=1 / psy_rd=1.05:0.00 / mixed_ref=1 / me_range=32 / chroma_me=1 / trellis=2 / 8x8dct=1 / cqm=0 / deadzone=21,11 / fast_pskip=0 / chroma_qp_offset=-2 / threads=12 / lookahead_threads=2 / sliced_threads=0 / nr=0 / decimate=0 / interlaced=0 / bluray_compat=0 / constrained_intra=0 / bframes=8 / b_pyramid=2 / b_adapt=2 / b_bias=0 / direct=3 / weightb=1 / open_gop=0 / weightp=2 / keyint=240 / keyint_min=24 / scenecut=40 / intra_refresh=0 / rc_lookahead=60 / rc=2pass / mbtree=0 / bitrate=6000 / ratetol=1.0 / qcomp=0.60 / qpmin=0 / qpmax=69 / qpstep=4 / cplxblur=20.0 / qblur=0.5 / vbv_maxrate=50000 / vbv_bufsize=62500 / nal_hrd=none / ip_ratio=1.40 / pb_ratio=1.30 / aq=1:0.80
Язык : English
Дата кодирования : UTC 2013-02-26 09:08:16
Дата пометки : UTC 2013-02-26 09:09:24
Основные цвета : BT.709
Характеристики трансфера : BT.709
Коэффициенты матрицы : BT.709
Видео #2
Идентификатор : 7
Формат : JPEG
Идентификатор кодека : jpeg
Продолжительность : 1 ч. 39 м.
Вид битрейта : Переменный
Битрейт : 1579 бит/сек
Ширина : 640 пикселей
Высота : 360 пикселей
Соотношение сторон : 16:9
Режим частоты кадров : Переменный
Частота кадров : 0,003 кадр/сек
Минимальная частота кадров : 0,002 кадр/сек
Максимальная частота кадров : 0,007 кадр/сек
Цветовое пространство : YUV
Субдискретизация насыщенности : 4:2:0
Битовая глубина : 8 бит
Метод сжатия : С потерями
Бит/(Пиксели*Кадры) : 2.284
Размер потока : 964 Кбайт (0%)
Язык : English
Дата кодирования : UTC 2013-02-26 09:50:06
Дата пометки : UTC 2013-02-26 09:50:06
Аудио #1
Идентификатор : 2
Формат : AAC
Формат/Информация : Advanced Audio Codec
Профиль формата : LC
Идентификатор кодека : 40
Продолжительность : 1 ч. 39 м.
Вид битрейта : Переменный
Битрейт : 180 Кбит/сек
Максимальный битрейт : 228 Кбит/сек
Каналы : 2 канала
Расположение каналов : Front: L R
Частота : 48,0 КГц
Метод сжатия : С потерями
Размер потока : 128 Мбайт (2%)
Язык : Russian
Дата кодирования : UTC 2013-02-26 09:09:11
Дата пометки : UTC 2013-02-26 09:09:24
Аудио #2
Идентификатор : 3
Формат : AC-3
Формат/Информация : Audio Coding 3
Расширение режима : CM (complete main)
Параметр Endianness формата : Big
Идентификатор кодека : ac-3
Продолжительность : 1 ч. 39 м.
Вид битрейта : Постоянный
Битрейт : 640 Кбит/сек
Каналы : 6 каналов
Расположение каналов : Front: L C R, Side: L R, LFE
Частота : 48,0 КГц
Битовая глубина : 16 бит
Метод сжатия : С потерями
Размер потока : 456 Мбайт (8%)
Язык : Russian
Дата кодирования : UTC 2013-02-26 09:09:13
Дата пометки : UTC 2013-02-26 09:09:24
Аудио #3
Идентификатор : 4
Формат : AAC
Формат/Информация : Advanced Audio Codec
Профиль формата : LC
Идентификатор кодека : 40
Продолжительность : 1 ч. 39 м.
Вид битрейта : Переменный
Битрейт : 172 Кбит/сек
Максимальный битрейт : 224 Кбит/сек
Каналы : 2 канала
Расположение каналов : Front: L R
Частота : 48,0 КГц
Метод сжатия : С потерями
Размер потока : 122 Мбайт (2%)
Язык : Russian
Дата кодирования : UTC 2013-02-26 09:09:18
Дата пометки : UTC 2013-02-26 09:09:24
Аудио #4
Идентификатор : 5
Формат : AC-3
Формат/Информация : Audio Coding 3
Расширение режима : CM (complete main)
Параметр Endianness формата : Big
Идентификатор кодека : ac-3
Продолжительность : 1 ч. 39 м.
Вид битрейта : Постоянный
Битрейт : 640 Кбит/сек
Каналы : 6 каналов
Расположение каналов : Front: L C R, Side: L R, LFE
Частота : 48,0 КГц
Битовая глубина : 16 бит
Метод сжатия : С потерями
Размер потока : 456 Мбайт (8%)
Язык : Russian
Дата кодирования : UTC 2013-02-26 09:09:19
Дата пометки : UTC 2013-02-26 09:09:24
Текст
Идентификатор : 6
Формат : Apple text
Идентификатор кодека : text
Продолжительность : 1 ч. 39 м.
Вид битрейта : Переменный
Битрейт : 0 бит/сек
Размер потока : 351 байт (0%)
Язык : English
Дата кодирования : UTC 2013-02-26 09:49:57
Дата пометки : UTC 2013-02-26 09:49:57
Меню
00:00:00.000 : Chapter 1
00:06:05.416 : Chapter 2
00:14:02.416 : Chapter 3
00:20:07.791 : Chapter 4
00:29:12.125 : Chapter 5
00:34:10.750 : Chapter 6
00:44:12.000 : Chapter 7
00:50:27.333 : Chapter 8
00:57:01.833 : Chapter 9
01:03:44.541 : Chapter 10
01:11:02.583 : Chapter 11
01:16:51.500 : Chapter 12
01:22:03.000 : Chapter 13
01:24:36.833 : Chapter 14
01:31:12.833 : Chapter 15
Скриншоты:


Тэги и обложка

Tags & Cover


Sort Name: Movie 43
XID: Apple:vendor_id:2013-645224
contentID: 645224
Copyright: © Relativity Media, Virgin Produced, GreeneStreet Films
Screenwriters: Люк Эбрел, Эдгар Морайс
Producers: Люк Эбрел, Каси Любин, Стивен С. Холмс
Director: Люк Эбрел
Cast: Эдгар Морайс, Оливер Мюрхэд, Пиа Мечлер, Оливия Тирлби, Стивен Уэбер, Ричард Риле, Крис Лемке, Лу Тэйлор Пуччи, Джон Робинсон, Лорна Скотт
Studio: © Relativity Media, Virgin Produced, GreeneStreet Films
Rating: 5
Long Description: 25 cуперзвезд первой величины — в комедийном проекте, который состоит из двух десятков мини-новелл с нескончаемым потоком шуток, гэгов, острот и пародий, о страстях и страстишках человеческих.
Description: 25 cуперзвезд первой величины — в комедийном проекте, который состоит из двух десятков мини-новелл с нескончаемым потоком шуток, гэгов, острот и пародий, о страстях и страстишках человеческих.
Release Date: 2013-01-25T08:00:00Z
Genre: Drama & Comedy
Artist: Luke Ebrel
Name: Муви 43

Thx

За исходник спасибо:



Релиз подготовлен для просмотра на Apple TV, iPad.
Для просмотра данного релиза на компьютере с ОС Windows рекомендуется использовать VLC media player.

Смотреть Online


Детали торрента:
Название:Муви 43 / Movie 43 (2013) BDRip [ATV2 | H.264/720p]
Дата добавления:26 Фев 2013 13:56:56
Размер:5,3 GB
Раздают:
Качают:0
Форум:Зарубежное видео HD для устройств Apple

All rights reserved © 2015-2019