TORRENTS45.XYZ

Скачать Странное дело. Гибель империй (2013.01.25) SATRip


Странное дело. Гибель империй (2013.01.25) SATRip
Режиссер / Телекомпания: РЕН
Русское название: Странное дело
Год выпуска: 2013
Жанр: Телепередача

Описание:
Каждая программа - это отдельный документальный фильм, который расскажет об удивительных и труднообъяснимых явлениях. Раз в неделю, зрители станут свидетелями: аномальных происшествий и загадок, неопознанных летающих объектах и странных существах, а также сверхъестественных способностях человека.

В выпуске:
Что привело к гибели древних цивилизаций? Климатические изменения, природные катастрофы, истощение ресурсов и дисбаланс населения? Все, что уничтожило другие цивилизации, является реальной угрозой и для нас

Режиссёр: Александр Однако
Текст читает: Александр Клюквин
Руководитель проекта: Игорь Прокопенко

Продолжительность: ~ 00:47:22

Видеокодек: XviD
Битрейт видео: ~1500 kb/s
Размер кадра: 704 x 400
Качество видео: SATRip
Аудиокодек: MP3, 2ch.
Битрейт аудио: 128 kb/s

MediaInfo

Формат : AVI
Формат/Информация : Audio Video Interleave
Размер файла : 556 Мбайт
Продолжительность : 47 м.
Общий поток : 1633 Кбит/сек
Программа кодирования : VirtualDubMod 1.5.10.2 (build 2540/release)
Библиотека кодирования : VirtualDub build 32507/release

Видео
Идентификатор : 0
Формат : MPEG-4 Visual
Профиль формата : Advanced Simple@L5
Параметр BVOP формата : 2
Параметр QPel формата : Нет
Параметр GMC формата : Без точки перехода
Параметр матрицы формата : Default (MPEG)
Идентификатор кодека : XVID
Идентификатор кодека/Подсказка : XviD
Продолжительность : 47 м.
Битрейт : 1495 Кбит/сек
Ширина : 704 пикселя
Высота : 400 пикселей
Соотношение сторон : 16:9
Частота кадров : 25,000 кадров/сек
Цветовое пространство : YUV
Субдискретизация насыщенности : 4:2:0
Битовая глубина : 8 бит
Тип развёртки : Прогрессивная
Метод сжатия : С потерями
Бит/(Пиксели*Кадры) : 0.212
Размер потока : 509 Мбайт (92%)
Библиотека кодирования : XviD 64

Аудио
Идентификатор : 1
Формат : MPEG Audio
Версия формата : Version 1
Профиль формата : Layer 3
Режим : Joint stereo
Расширение режима : MS Stereo
Идентификатор кодека : 55
Идентификатор кодека/Подсказка : MP3
Продолжительность : 47 м.
Вид битрейта : Постоянный
Битрейт : 128 Кбит/сек
Каналы : 2 канала
Частота : 48,0 КГц
Метод сжатия : С потерями
Размер потока : 43,6 Мбайт (8%)
Выравнивание : Соединение по промежуткам
Продолжительность промежутка : 40 мс. (1,00 видеокадр)
Время предзагрузки промежутка : 504 мс.
Библиотека кодирования : LAME3.90.3
Скриншоты:
Детали торрента:
Название:Странное дело. Гибель империй (2013.01.25) SATRip
Дата добавления:25 Янв 2013 19:32:39
Размер:551 MB
Раздают:
Качают:0
Форум:Непознанное и сверхъестественное

All rights reserved © 2015-2019