TORRENTS45.XYZ

Скачать Живая игрушка (1982) DVDRip [H.264]


Живая игрушка (1982) DVDRip [H.264]
Русское название: Живая игрушка
Год выпуска: 1982
Жанр: мультфильм, короткометражка
Страна: СССР

Режиссер: Леонид Каюков

Роли озвучивают: Клара Румянова

Описание фильма:
Об осторожном обращении с животными, ведь они — живые.



Релиз на DVD: 15 сентября 2009, «Lizard Cinema Trade»

За Рип Спасибо Nyc-2008

Продолжительность: 00:09:28
Качество видео: DVDRip

Видеокодек: MPEG-4 AVC/H.264
Битрейт видео: ~2119 kb/s
Размер кадра: 714x570
Аудиокодек: AC3 6 ch
Битрейт аудио: 448 kb/s

MediaInfo

Формат : Matroska
Версия формата : Version 2
Размер файла : 177 Мбайт
Продолжительность : 9 м. 28 с.
Общий поток : 2619 Кбит/сек
Дата кодирования : UTC 2011-02-15 14:31:51
Программа кодирования : mkvmerge v4.5.0 ('Speed of Light') сборка от Feb 1 2011 02:10:32
Библиотека кодирования : libebml v1.2.0 + libmatroska v1.1.0

Видео
Идентификатор : 1
Формат : AVC
Формат/Информация : Advanced Video Codec
Профиль формата : High@L4.0
Параметр CABAC формата : Да
Параметр ReFrames формата : 16 кадров
Идентификатор кодека : V_MPEG4/ISO/AVC
Продолжительность : 9 м. 28 с.
Битрейт : 2119 Кбит/сек
Ширина : 714 пикселей
Высота : 570 пикселей
Соотношение сторон : 4:3
Соотношение сторон в оригинале : 4:3
Частота кадров : 25,000 кадров/сек
Цветовое пространство : YUV
Субдискретизация насыщенности : 4:2:0
Битовая глубина : 8 бит
Тип развёртки : Прогрессивная
Бит/(Пиксели*Кадры) : 0.208
Размер потока : 144 Мбайт (81%)
Библиотека кодирования : x264 core 113 r1884kMod 7313bb5
Настройки программы : cabac=1 / ref=16 / deblock=1:-1:-1 / analyse=0x3:0x113 / me=umh / subme=10 / psy=1 / fade_compensate=0.00 / psy_rd=1.00:0.10 / mixed_ref=1 / me_range=24 / chroma_me=1 / trellis=2 / 8x8dct=1 / cqm=0 / deadzone=21,11 / fast_pskip=0 / chroma_qp_offset=-3 / threads=6 / sliced_threads=0 / nr=0 / decimate=1 / interlaced=0 / constrained_intra=0 / bframes=8 / b_pyramid=2 / b_adapt=2 / b_bias=0 / direct=1 / weightb=1 / open_gop=0 / weightp=2 / keyint=250 / keyint_min=25 / scenecut=40 / intra_refresh=0 / rc_lookahead=60 / rc=crf / mbtree=1 / crf=18.0000 / qcomp=0.60 / qpmin=0 / qpmax=69 / qpstep=4 / ip_ratio=1.40 / aq=2:1.00
Default : Да
Forced : Нет

Аудио
Идентификатор : 2
Формат : AC-3
Формат/Информация : Audio Coding 3
Расширение режима : CM (complete main)
Параметр Endianness формата : Big
Идентификатор кодека : A_AC3
Продолжительность : 9 м. 28 с.
Вид битрейта : Постоянный
Битрейт : 448 Кбит/сек
Каналы : 6 каналов
Расположение каналов : Front: L C R, Side: L R, LFE
Частота : 48,0 КГц
Битовая глубина : 16 бит
Метод сжатия : С потерями
Задержка видео : 15 мс.
Размер потока : 30,4 Мбайт (17%)
Default : Да
Forced : Нет
Скриншоты:


Живая игрушка на Torrents45.xyz


Смотрите так же другие мои раздачи

Смотреть Online

Детали торрента:
Название:Живая игрушка (1982) DVDRip [H.264]
Дата добавления:22 Янв 2013 20:56:40
Размер:177 MB
Раздают:5
Качают:0
Форум:Отечественные Мультфильмы для детей

All rights reserved © 2015-2019