TORRENTS45.XYZ

Скачать Karakuri Zoushi Ayatsuri Sakon / Tales of Puppetmaster Sakon / Рассказы кукловода Сакона (1999, 26 из 26) DVDRip 480p hs+raw


人形草紙 あやつり左近 / Karakuri Zoushi Ayatsuri Sakon / Tales of Puppetmaster Sakon / Рассказы кукловода Сакона
Жанр: детектив, триллер, приключения
Тип: TV-сериал
Количество серий: 26 из 26
Продолжительность: 26 серий по ~00:25:00
Дата премьеры / период выхода: 08.10.1999 - 31.03.2000
Производство/студия:
Автор оригинала: Обата Такэси
Режиссер: Мацуи Хитоюки

Битрейт видео: ~800 kb/s
Размер кадра: 640 x 480
Качество видео: 1-10: TVRip; 11-26: DVDRip
Звук:
1-10 серии: Японский (MP3, 2ch, 48 kHz, 128 kb/s)
11-26 серии: Японский (AAC, 2ch, 48 kHz, VBR ~110 kb/s)
Тип субтитров: HS
Язык неотключаемых субтитров: Английский
Язык подключаемых субтитров: Русский

Описание:
Молодой артист классического японского театра бунраку по имени Сакон путешествует по Японии XX века вместе со своей куклой-марионеткой и лучшим другом Уконом. Укон - кукла ребенка, созданная великим мастером в эпоху Мейдзи. Вместе они попадают в страшные приключения, связанные с убийствами, которые благополучно раскрывают.

Эпизоды:

01. Vengeful Demon of the Abandoned School Part I
02. Vengeful Demon of the Abandoned School Part II
03. Vengeful Demon of the Abandoned School Part III
04. The Izu Two-Faced Oni - Part I
05. The Izu Two-Faced Oni - Part II
06. The Izu Two-Faced Oni - Part III
07. The Izu Two-Faced Oni - Part IV
08. Sakons Puppet: The Ghost Chapter - Chapter One
09. Sakons Puppet: The Ghost Chapter - Chapter Two
10. Sakons Puppet: The Ghost Chapter - Chapter Three
11. The Blood Rain of the One Hundred Foxes of Shinshu - Part I
12. The Blood Rain of the One Hundred Foxes of Shinshu - Part II
13. The Blood Rain of the One Hundred Foxes of Shinshu - Part III
14. Curse of the Egyptian Pharaoh Part I
15. Curse of the Egyptian Pharaoh Part II
16. Curse of the Egyptian Pharaoh Part III
17. Curse of the Egyptian Pharaoh Part IV
18. The Sympathy of Kaoru's Disappointed Love Part I
19. The Sympathy of Kaoru's Disappointed Love Part II
20. The Sympathy of Kaoru's Disappointed Love Part III
21. Eccentric Talk of the Okuhida Ghost Part I
22. Eccentric Talk of the Okuhida Ghost Part II
23. Eccentric Talk of the Okuhida Ghost Part III
24. Love Flowers Tearfall Profuse Bloom Dance Part I
25. Love Flowers Tearfall Profuse Bloom Dance Part II
26. Love Flowers Tearfall Profuse Bloom Dance Part III

MediaInfo:

Серии 1-10
Код:

  General
    Format : AVI
    Format/Info : Audio Video Interleave
    File size : 171 MiB
    Duration : 25mn 1s
    Overall bit rate : 953 Kbps
    Movie name : Ayatsuri Sakon - 01 - Avenger of the Abandoned School - Chapter One
    Director : Seichi Fansubs
    Writing application : VirtualDubMod 1.5.10.1 (build 2366/release)
    Writing library : VirtualDubMod build 2366/release
    Copyright : #seichi@irc.mircx.com
  Video #0
    ID : 0
    Format : MPEG-4 Visual
    Format profile : Simple@L3
    Format settings, BVOP : 2
    Format settings, QPel : No
    Format settings, GMC : No warppoints
    Format settings, Matrix : Default (H.263)
    Codec ID : XVID
    Codec ID/Hint : XviD
    Duration : 25mn 1s
    Bit rate : 815 Kbps
    Width : 640 pixels
    Height : 480 pixels
    Display aspect ratio : 4:3
    Frame rate : 23.976 fps
    Color space : YUV
    Chroma subsampling : 4:2:0
    Bit depth : 8 bits
    Scan type : Progressive
    Compression mode : Lossy
    Bits/(Pixel*Frame) : 0.111
    Stream size : 146 MiB (86%)
    Writing library : XviD 1.0.0 Beta2.5 (UTC 2003-12-18)
  Audio #1
    ID : 1
    Format : MPEG Audio
    Format version : Version 1
    Format profile : Layer 3
    Mode : Joint stereo
    Emphasis : 50/15ms
    Codec ID : 55
    Codec ID/Hint : MP3
    Duration : 25mn 1s
    Bit rate mode : Constant
    Bit rate : 128 Kbps
    Channel(s) : 2 channels
    Sampling rate : 48.0 KHz
    Compression mode : Lossy
    Stream size : 22.9 MiB (13%)
    Alignment : Split accross interleaves
    Interleave, duration : 42 ms (1.00 video frame)
    Interleave, preload duration : 500 ms

Серии 11-26
Код:

  General
    Format : MPEG-4
    Format profile : Base Media
    Codec ID : isom
    File size : 167 MiB
    Duration : 25mn 0s
    Overall bit rate mode : Variable
    Overall bit rate : 935 Kbps
    Encoded date : UTC 2006-05-01 01:25:52
    Tagged date : UTC 2006-05-01 01:25:52
  Video #1
    ID : 1
    Format : AVC
    Format/Info : Advanced Video Codec
    Format profile : High@L5.1
    Format settings, CABAC : Yes
    Format settings, ReFrames : 9 frames
    Codec ID : avc1
    Codec ID/Info : Advanced Video Coding
    Duration : 25mn 0s
    Bit rate : 860 Kbps
    Maximum bit rate : 8 524 Kbps
    Width : 640 pixels
    Height : 480 pixels
    Display aspect ratio : 4:3
    Frame rate mode : Constant
    Frame rate : 23.976 fps
    Color space : YUV
    Chroma subsampling : 4:2:0
    Bit depth : 8 bits
    Scan type : Progressive
    Bits/(Pixel*Frame) : 0.117
    Stream size : 155 MiB (92%)
    Writing library : x264 core 46 svn-512M
    Encoding settings : cabac=1 / ref=6 / deblock=1:1:0 / analyse=0x3:0x133 / me=umh / subme=6 / brdo=1 / mixed_ref=1 / me_range=20 / chroma_me=1 / trellis=1 / 8x8dct=1 / cqm=0 / chroma_qp_offset=0 / slices=1 / nr=220 / decimate=1 / bframes=3 / b_pyramid=1 / b_adapt=1 / b_bias=15 / direct=3 / wpredb=1 / bime=1 / keyint=240 / keyint_min=25 / scenecut=40 / rc=2pass / bitrate=860 / ratetol=90.0 / rceq='blurCplx^(1-qComp)' / qcomp=0.60 / qpmin=10 / qpmax=51 / qpstep=40 / cplxblur=20.0 / qblur=0.5 / ip_ratio=1.50 / pb_ratio=1.40
    Encoded date : UTC 2006-04-30 20:50:26
    Tagged date : UTC 2006-05-01 01:26:12
  Audio #2
    ID : 2
    Format : AAC
    Format/Info : Advanced Audio Codec
    Format profile : HE-AAC / LC
    Codec ID : 40
    Duration : 24mn 59s
    Bit rate mode : Variable
    Bit rate : 67.6 Kbps
    Maximum bit rate : 94.4 Kbps
    Channel(s) : 2 channels
    Channel positions : Front: L R
    Sampling rate : 48.0 KHz / 24.0 KHz
    Compression mode : Lossy
    Stream size : 12.1 MiB (7%)
    Encoded date : UTC 2006-05-01 01:26:11
    Tagged date : UTC 2006-05-01 01:26:12
Ссылки:

Скриншоты:




Детали торрента:
Название:Karakuri Zoushi Ayatsuri Sakon / Tales of Puppetmaster Sakon / Рассказы кукловода Сакона (1999, 26 из 26) DVDRip 480p hs+raw
Дата добавления:09 Янв 2013 17:52:37
Размер:4,39 GB
Раздают:2
Качают:0
Форум:Аниме хардсаб

All rights reserved © 2015-2018