TORRENTS45.XYZ

Скачать The Prodigy - The Fat of the Land (Expanded Edition) (2 CD) (1997/2012) [FLAC|Lossless]<Breakbeat, Big Beat, Dubstep>


The Prodigy - The Fat of the Land (Expanded Edition) (2 CD) (1997/2012)



Год: 1997/2012
Жанр: Breakbeat, Big Beat, Dubstep
Продолжительность: 01:23:35
Лейбл: XL Recordings/Союз Мьюзик
Каталог №: XLCD586
Сканы: Комплект
Тип рипа: image+.cue
Кодек: FLAC
Битрейт: Lossless


Трек лист:

CD 1


Трек лист:
01. Smack My Bitch Up
02. Breathe
03. Diesel Power
04. Funky Shit
05. Serila Thrilla
06. Mindfields
07. Narayan
08. Firestarter
09. Climbatize
10. Fuel My Fire

Продолжительность: 00:56:25

Отчёт ЕАС:

Код:

Exact Audio Copy V0.99 prebeta 3 from 28. July 2007

Отчёт EAC об извлечении, выполненном 6. января 2013, 22:47

The Prodigy / The Fat Of The Land (Expanded Edition)

Дисковод: Optiarc DVD RW AD-7203A   Adapter: 0  ID: 0

Режим чтения                 : Достоверность
Использование точного потока : Да
Отключение кэша аудио        : Да
Использование указателей C2  : Нет

Коррекция смещения при чтении                     : 48
Способность читать области Lead-in и Lead-out     : Нет
Заполнение пропущенных сэмплов тишиной            : Да
Удаление блоков с тишиной в начале и конце        : Нет
При вычислениях CRC использовались нулевые сэмплы : Да
Интерфейс                                         : Встроенный Win32-интерфейс для Win NT/2000

Выходной формат : Внутренние WAV-операции
Формат сэмплов  : 44.100 Гц; 16 бит; стерео

TOC извлечённого CD

     Трек |   Старт  | Длительность | Начальный сектор | Конечный сектор
    ---------------------------------------------------------------------
       1  |  0:00.00 |    5:42.55   |           0      |      25704
       2  |  5:42.55 |    5:34.60   |       25705      |      50814
       3  | 11:17.40 |    4:17.45   |       50815      |      70134
       4  | 15:35.10 |    5:16.32   |       70135      |      93866
       5  | 20:51.42 |    5:11.25   |       93867      |     117216
       6  | 26:02.67 |    5:39.68   |      117217      |     142709
       7  | 31:42.60 |    9:05.72   |      142710      |     183656
       8  | 40:48.57 |    4:39.60   |      183657      |     204641
       9  | 45:28.42 |    6:38.25   |      204642      |     234516
      10  | 52:06.67 |    4:18.68   |      234517      |     253934

Характеристики диапазона извлечения и сообщения об ошибках

Выбранный диапазон

     Имя файла D:\Rip-flacmusic.ru\Prodigy '97\CD1\The Prodigy - The Fat Of The Land (Expanded Edition).wav

     Пиковый уровень 100.0 %
     Качество диапазона 100.0 %
     CRC теста 47337428
     CRC копии 47337428
     Копирование... OK

Ошибок не произошло

AccurateRip: сводка

Трек  1  точность не определена (достоверность 184)  [4F3118C5], AccurateRip вернул [308EDA3D]
Трек  2  точность не определена (достоверность 182)  [DF4145A6], AccurateRip вернул [394DE3D3]
Трек  3  точность не определена (достоверность 183)  [F3AB26FD], AccurateRip вернул [760106C8]
Трек  4  точность не определена (достоверность 182)  [CEBED6CD], AccurateRip вернул [3786033A]
Трек  5  точность не определена (достоверность 183)  [F9E38A85], AccurateRip вернул [A33D51B9]
Трек  6  точность не определена (достоверность 183)  [E57AED0B], AccurateRip вернул [92FD09DA]
Трек  7  точность не определена (достоверность 177)  [BE8905BF], AccurateRip вернул [CB100B43]
Трек  8  точность не определена (достоверность 182)  [D9FF23DE], AccurateRip вернул [43E45E7E]
Трек  9  точность не определена (достоверность 178)  [2D4C4218], AccurateRip вернул [E746F674]
Трек 10  точность не определена (достоверность 172)  [45B47DB9], AccurateRip вернул [068118F9]

Ни один трек не прошёл проверки на точность
В вашей базе может быть иной вариант штамповки диска

Конец отчёта

Отчёт auCDtect Task manager:

Код:

-----------------------

DON'T MODIFY THIS FILE

-----------------------

PERFORMER: auCDtect Task Manager, ver. 1.5.1RC6 build 1.5.1.7
Copyright (c) 2008-2010 y-soft. All rights reserved
http://y-soft.org

ANALYZER: auCDtect: CD records authenticity detector, version 0.8.2
Copyright (c) 2004 Oleg Berngardt. All rights reserved.
Copyright (c) 2004 Alexander Djourik. All rights reserved.

FILE: The Prodigy - The Fat Of The Land (Expanded Edition).flac
  Size: 427790395 Hash: D7F3BA61CCBC8451993E312607063254 Accuracy: -m0
  Conclusion: CDDA 100%
  Signature: 5AD8857031E2DC1E4A9582129739925D389616D4

CD 2


Трек лист:
01. Smack My Bitch Up (Noisia Remix)
02. Firestarter (Alvin Risk Remix)
03. Breathe (Zeds Dead Remix)
04. Mindfields (Baauer Remix)
05. Breathe (The Glitch Mob Remix)
06. Smack My Bitch Up (Major Lazer Remix)

Продолжительность: 00:27:10

Отчёт ЕАС:

Код:
Exact Audio Copy V0.99 prebeta 3 from 28. July 2007

Отчёт EAC об извлечении, выполненном 6. января 2013, 23:11

Prodigy / The Fat Of The Land (Reissue - CD 2 - The Added Fat EP)

Дисковод: Optiarc DVD RW AD-7203A   Adapter: 0  ID: 0

Режим чтения                 : Достоверность
Использование точного потока : Да
Отключение кэша аудио        : Да
Использование указателей C2  : Нет

Коррекция смещения при чтении                     : 48
Способность читать области Lead-in и Lead-out     : Нет
Заполнение пропущенных сэмплов тишиной            : Да
Удаление блоков с тишиной в начале и конце        : Нет
При вычислениях CRC использовались нулевые сэмплы : Да
Интерфейс                                         : Встроенный Win32-интерфейс для Win NT/2000

Выходной формат : Внутренние WAV-операции
Формат сэмплов  : 44.100 Гц; 16 бит; стерео

TOC извлечённого CD

     Трек |   Старт  | Длительность | Начальный сектор | Конечный сектор
    ---------------------------------------------------------------------
       1  |  0:00.00 |    5:53.20   |           0      |      26494
       2  |  5:53.20 |    3:18.25   |       26495      |      41369
       3  |  9:11.45 |    4:36.29   |       41370      |      62098
       4  | 13:47.74 |    3:51.41   |       62099      |      79464
       5  | 17:39.40 |    4:25.25   |       79465      |      99364
       6  | 22:04.65 |    5:05.60   |       99365      |     122299

Характеристики диапазона извлечения и сообщения об ошибках

Выбранный диапазон

     Имя файла D:\Rip-flacmusic.ru\Prodigy '97\CD2\Prodigy - The Fat Of The Land (Reissue - CD 2 - The Added Fat EP).wav

     Пиковый уровень 99.9 %
     Качество диапазона 100.0 %
     CRC теста 4AA88EFF
     CRC копии 4AA88EFF
     Копирование... OK

Ошибок не произошло

AccurateRip: сводка

Трек  1  точность не определена (достоверность 1)  [82E4D758], AccurateRip вернул [8B4EAD2E]
Трек  2  точность не определена (достоверность 1)  [CA77653B], AccurateRip вернул [ED7B9D84]
Трек  3  точность не определена (достоверность 1)  [BF9A5AEC], AccurateRip вернул [1A56C1A6]
Трек  4  точность не определена (достоверность 1)  [76870772], AccurateRip вернул [45CAD33E]
Трек  5  точность не определена (достоверность 1)  [F9481CB8], AccurateRip вернул [EE9F4690]
Трек  6  точность не определена (достоверность 1)  [3E22194E], AccurateRip вернул [7DE513C3]

Ни один трек не прошёл проверки на точность
В вашей базе может быть иной вариант штамповки диска

Конец отчёта

Отчёт auCDtect Task manager:

Код:
-----------------------

DON'T MODIFY THIS FILE

-----------------------

PERFORMER: auCDtect Task Manager, ver. 1.5.1RC6 build 1.5.1.7
Copyright (c) 2008-2010 y-soft. All rights reserved
http://y-soft.org

ANALYZER: auCDtect: CD records authenticity detector, version 0.8.2
Copyright (c) 2004 Oleg Berngardt. All rights reserved.
Copyright (c) 2004 Alexander Djourik. All rights reserved.

FILE: Prodigy - The Fat Of The Land (Reissue - CD 2 - The Added Fat EP).flac
  Size: 217302730 Hash: 66830704126CA8EF37C7A1057BA65206 Accuracy: -m0
  Conclusion: CDDA 100%
  Signature: 8769C3F467B89F527BE5E012C9BF328C21B80B33
Детали торрента:
Название:The Prodigy - The Fat of the Land (Expanded Edition) (2 CD) (1997/2012) [FLAC|Lossless]<Breakbeat, Big Beat, Dubstep>
Дата добавления:07 Янв 2013 14:01:27
Размер:711 MB
Раздают:7
Качают:2
Форум:Drum'n'Bass, Jungle, Breaks, Breakbeat, Dubstep (Lossless)

All rights reserved © 2015-2018