TORRENTS45.XYZ

Скачать Секретная служба Санта-Клауса / Arthur Christmas (2011) [1080p] BDRemux


Секретная служба Санта-Клауса / Arthur Christmas (2011) BDRemux
Русское название: Секретная служба Санта-Клауса
Оригинальное название: Arthur Christmas
Год выпуска: 2011
Производство: Великобритания, США | Aardman Animations, Sony Pictures Animation
Жанр: Мультфильм, Драма, Комедия, Семейный

Дата мировой премьеры: 11 ноября 2011
Дата российской премьеры: 8 декабря 2011, «WDSSPR»
Дата выхода DVD и Blu-Ray релиза: 27 ноября 2012, «Columbia/Sony»
Описание: Рождественский мультфильм "Секретная служба Санта-Клауса" обещает подарить Вам предпраздничное настроение и порадовать новыми идеями. Здесь, наряду со старыми общепринятыми тенденциями, присутствуют модерные вкрапления, о которых мы раньше не слышали. Это, например, то, что у Санты есть сын, который, честно сказать, ну так себе, чудаковатый какой-то. И еще важная деталь, знали ли вы, что Санта Клаус летает не на оленях, а на космическом корабле? Нет? Теперь будете знать! В картине раскроется секрет того, как Санта успевает за ночь развезти все подарки...

Режиссер: Сара Смит, Бэрри Кук
Продюсер: Стив Пеграм, Крис Джун, Питер Лорд
Персонажи: Джеймс МакЭвой, Хью Лори, Билл Найи, Джим Броудбент, Имелда Стонтон, Эшли Дженсен, Марк Вуттон, Лора Линни, Ева Лонгория, Рамона Маркес
| | Sample
Продолжительность: 01:37:32
Перевод: Дублированный (Blu-ray CEE)
Язык субтитров: Русские, английские
Вид субтитров: Вшитые отключаемые

Качество видео: BDRemux
Видеокодек: MPEG-4 AVC/H.264
Битрейт видео: ~24.9 Мбит/с
Размер кадра: 1920x1080
Аудио 1: AC3, 6 ch, 640 Кбит/с - Дублированный (русский)
Аудио 2: AC3, 6 ch, 640 Кбит/с - Дублированный (украинский)
Аудио 3: DTS-HD МА, 6 ch, 2236 Кбит/с - Английский
Cохранены оригинальные чаптеры как на Blu-ray.

Mediainfo

General
Unique ID : 202697540334289030808135127251712963154 (0x987E205277853C09A201F86FD9337252)
Complete name : G:\Sekretnaja.sluzhba.Santa-Klausa.2011.MPEG-4-AVC.BDRemux(1080p).mkv
Format : Matroska
Format version : Version 2
File size : 19.3 GiB
Duration : 1h 37mn
Overall bit rate mode : Variable
Overall bit rate : 28.3 Mbps
Movie name : --SCHUMAHER--
Encoded date : UTC 2012-11-12 07:20:00
Writing application : mkvmerge v5.8.0 ('No Sleep / Pillow') built on Sep 2 2012 15:37:04
Writing library : libebml v1.2.3 + libmatroska v1.3.0

Video
ID : 1
Format : AVC
Format/Info : Advanced Video Codec
Format profile : High@L4.1
Format settings, CABAC : Yes
Format settings, ReFrames : 2 frames
Codec ID : V_MPEG4/ISO/AVC
Duration : 1h 37mn
Bit rate mode : Variable
Bit rate : 24.9 Mbps
Width : 1 920 pixels
Height : 1 080 pixels
Display aspect ratio : 16:9
Frame rate : 23.976 fps
Color space : YUV
Chroma subsampling : 4:2:0
Bit depth : 8 bits
Scan type : Progressive
Bits/(Pixel*Frame) : 0.501
Stream size : 17.0 GiB (88%)
Language : English
Default : Yes
Forced : Yes

Audio #1
ID : 2
Format : AC-3
Format/Info : Audio Coding 3
Mode extension : CM (complete main)
Format settings, Endianness : Big
Codec ID : A_AC3
Duration : 1h 37mn
Bit rate mode : Constant
Bit rate : 640 Kbps
Channel(s) : 6 channels
Channel positions : Front: L C R, Side: L R, LFE
Sampling rate : 48.0 KHz
Bit depth : 16 bits
Compression mode : Lossy
Stream size : 447 MiB (2%)
Language : Russian
Default : Yes
Forced : Yes

Audio #2
ID : 3
Format : AC-3
Format/Info : Audio Coding 3
Mode extension : CM (complete main)
Format settings, Endianness : Big
Codec ID : A_AC3
Duration : 1h 37mn
Bit rate mode : Constant
Bit rate : 640 Kbps
Channel(s) : 6 channels
Channel positions : Front: L C R, Side: L R, LFE
Sampling rate : 48.0 KHz
Bit depth : 16 bits
Compression mode : Lossy
Stream size : 447 MiB (2%)
Language : Ukrainian
Default : No
Forced : No

Audio #3
ID : 4
Format : DTS
Format/Info : Digital Theater Systems
Format profile : MA / Core
Codec ID : A_DTS
Duration : 1h 37mn
Bit rate mode : Variable
Bit rate : 1 561 Kbps / 1 510 Kbps
Channel(s) : 6 channels
Channel positions : Front: L C R, Side: L R, LFE
Sampling rate : 48.0 KHz
Bit depth : 16 bits
Compression mode : Lossless / Lossy
Language : English
Default : No
Forced : No

Text #1
ID : 5
Format : UTF-8
Codec ID : S_TEXT/UTF8
Codec ID/Info : UTF-8 Plain Text
Language : Russian
Default : No
Forced : No

Text #2
ID : 6
Format : UTF-8
Codec ID : S_TEXT/UTF8
Codec ID/Info : UTF-8 Plain Text
Title : Full
Language : English
Default : No
Forced : No

Text #3
ID : 7
Format : UTF-8
Codec ID : S_TEXT/UTF8
Codec ID/Info : UTF-8 Plain Text
Title : Full SDH
Language : English
Default : No
Forced : No

Text #4
ID : 8
Format : UTF-8
Codec ID : S_TEXT/UTF8
Codec ID/Info : UTF-8 Plain Text
Title : Full SDH (Colored)
Language : English
Default : No
Forced : No

Menu
00:00:00.000 : en:
00:04:37.777 : en:
00:08:52.615 : en:
00:16:27.152 : en:
00:19:48.729 : en:
00:23:23.819 : en:
00:28:59.320 : en:
00:33:28.922 : en:
00:39:22.276 : en:
00:44:45.556 : en:
00:52:49.373 : en:
00:58:48.942 : en:
01:06:00.289 : en:
01:13:49.341 : en:
01:20:36.957 : en:
01:29:48.174 : en:

Все раздачи Секретная служба Санта-Клауса на Torrents45.xyz
Скриншоты:

Смотреть Online

Детали торрента:
Название:Секретная служба Санта-Клауса / Arthur Christmas (2011) [1080p] BDRemux
Дата добавления:12 Ноя 2012 11:52:59
Размер:19,3 GB
Раздают:
Качают:1
Форум:Архив Мультфильмов

All rights reserved © 2015-2019