TORRENTS45.XYZ

Скачать Atoll Nerat - Путешествия в отдельные реальности (2012) [FLAC|Lossless]<Gothic Black Metal, Dark Metal>


Atoll Nerat - Путешествия в отдельные реальности
Год: 2012
Жанр: Gothic Black Metal, Dark Metal
Страна: Россия
Издатель: MUSICA Production [MP-62]
Кодек: FLAC
Битрейт: Lossless
Продолжительность: 00:53:09
Спасибо: rd
Треклист:

01. Жизнь (часть 1)
02. Ведьма (часть 4)
03. Путник
04. Всадник
05. Весна
06. Жизнь (часть 2)
07. Небо
08. Булонский лес / Le bois de Boulogne (re-recorded demo 1996)

Слушаем, читаем..


Новый альбом одной из самых интересных команд из России. Пермские металлисты подготовили очередной шедевр для всех поклонников нетривиальной мелодичной музыки. Красивые мелодии, неожиданные композиционные решения и отличная реализация. Следует отметить, интересную русскоязычную лирику. Поклонникам MOONSPELL, ROTTING CHRIST и GRAVEWORM.

Отчёт ЕАС:

Код:

Exact Audio Copy V1.0 beta 3 from 29. August 2011

EAC extraction logfile from 10. November 2012, 23:51

ATOLL NERAT / Путешествия в отдельные реальности MP062

Used drive  : PLEXTOR DVDR   PX-860A   Adapter: 4  ID: 0

Read mode               : Secure
Utilize accurate stream : Yes
Defeat audio cache      : Yes
Make use of C2 pointers : No

Read offset correction                      : 96
Overread into Lead-In and Lead-Out          : No
Fill up missing offset samples with silence : Yes
Delete leading and trailing silent blocks   : No
Null samples used in CRC calculations       : Yes
Used interface                              : Installed external ASPI interface

Used output format              : User Defined Encoder
Selected bitrate                : 1024 kBit/s
Quality                         : High
Add ID3 tag                     : No
Command line compressor         : C:\Program Files\Exact Audio Copy\FLAC.EXE
Additional command line options : -V -8 -T "Date=%year%" -T "Genre=%genre%" %source%

TOC of the extracted CD

     Track |   Start  |  Length  | Start sector | End sector
    ---------------------------------------------------------
        1  |  0:00.00 |  5:01.64 |         0    |    22638
        2  |  5:01.64 |  6:47.13 |     22639    |    53176
        3  | 11:49.02 |  7:11.52 |     53177    |    85553
        4  | 19:00.54 |  6:27.73 |     85554    |   114651
        5  | 25:28.52 |  8:31.58 |    114652    |   153034
        6  | 34:00.35 |  6:59.73 |    153035    |   184532
        7  | 41:00.33 |  6:54.46 |    184533    |   215628
        8  | 47:55.04 |  5:14.33 |    215629    |   239211

Range status and errors

Selected range

     Filename H:\MUSIC\ATOLL NERAT - Путешествия в отдельные реальности MP062.wav

     Peak level 100.0 %
     Extraction speed 6.5 X
     Range quality 99.9 %
     Test CRC D0AABB0D
     Copy CRC D0AABB0D
     Copy OK

No errors occurred

AccurateRip summary

Track  1  not present in database
Track  2  not present in database
Track  3  not present in database
Track  4  not present in database
Track  5  not present in database
Track  6  not present in database
Track  7  not present in database
Track  8  not present in database

None of the tracks are present in the AccurateRip database

End of status report

==== Log checksum 885F5E5B4598A7D3B0B001C35CBA311AF4707443F51CDC9CCA0AF79A161AA347 ====

Отчёт auCDtect Task manager:

Код:

-----------------------

DON'T MODIFY THIS FILE

-----------------------

PERFORMER: auCDtect Task Manager, ver. 1.5.1RC6 build 1.5.1.7
Copyright (c) 2008-2010 y-soft. All rights reserved
http://y-soft.org

ANALYZER: auCDtect: CD records authenticity detector, version 0.8.2
Copyright (c) 2004 Oleg Berngardt. All rights reserved.
Copyright (c) 2004 Alexander Djourik. All rights reserved.

FILE: ATOLL NERAT - Путешествия в отдельные реальности MP062.flac
  Size: 413540102 Hash: D21DECFC433BB3BE62A2F2578987B46F Accuracy: -m0
  Conclusion: CDDA 100%
  Signature: F3E26838C34078B361F44D090629795AB9321C14
Детали торрента:
Название:Atoll Nerat - Путешествия в отдельные реальности (2012) [FLAC|Lossless]<Gothic Black Metal, Dark Metal>
Дата добавления:11 Ноя 2012 15:59:36
Размер:432 MB
Раздают:
Качают:0
Форум:Русский Рок (Lossless)

All rights reserved © 2015-2018