TORRENTS45.XYZ

Скачать Neutral Milk Hotel - In the Aeroplane Over the Sea (1998) [FLAC|Lossless]<Psychodelic, Lo-Fi, Indie Rock, Folk>


Neutral Milk Hotel - In the Aeroplane Over the Sea (1998)

Описание:
In The Aeroplane Over The Sea (в пер. с англ. - «В аэроплане над морем») — второй и последний студийный альбом американской псих-фолковой группы Neutral Milk Hotel, вышедший 10 февраля 1998 года на Merge Records (в мае того же года он был выпущен в Великобритании на Blue Rose Records). Альбом стал самым успешным и популярным у группы и был высоко оценен критиками: так, Pitchfork Media включил его в список «100 лучших альбомов 1990-х», где альбом занял 4-ю позицию, а интернет-сервис Amazon.com поместил его на 2-ю строчку в рамках списка «Ста величайших инди-рок альбомов всех времён».

продолжение:

Neutral Milk Hotel — музыкальный коллектив из США, основанный в 1991 году. Джеффом Мэнгамом (Jeff Mangum) и исполнявший эклектичный lo-fi/психоделический фолк. Группа известна своими экспериментами со звуком, абстрактными поэтичными текстами и широким разнообразием используемых инструментов.
Несмотря на то, что широкой известности у мейнстримовой аудитории ансамбль так и не добился, со стороны критиков он неизменно пользовался благосклонным отношением и приобрел культовый статус в андеграундной музыкальной среде. Самый известный альбом группы, In the Aeroplane over the Sea, нередко называется в числе самых «значимых» записей в инди-роке 1990-х (и в инди-роке в целом).
Невзирая на рост известности коллектива, в 1999 году Мэнгам разочаровался в проекте и распустил ансамбль. Свою роль в этом сыграл и произошедший с ним нервный срыв.

Год: 1998 | Жанр: Psychodelic, Lo-Fi, Indie Rock, Folk | Лэйбл: Союз/Domino [REWIGCD21] | Формат: CD, Album
Аудио Кодек: FLAC | Аудио Битрейт: Lossless | Тип Рипа: Image+.cue+.log | Наличие Сканов: Да, HQ | Автор Рипа: Poweruss

Продолжительность: 00:39:55

Трек лист:
01. The King of Carrot Flowers, Part One :: 02:00
02. The King of Carrot Flowers, Parts Two & Three :: 03:06
03. In the Aeroplane Over the Sea :: 03:22
04. Two-Headed Boy :: 04:25
05. The Fool :: 01:53
06. Holland, 1945 :: 03:12
07. Communist Daughter :: 01:57
08. Oh Comely :: 08:18
09. Ghost :: 04:08
10. Untitled :: 02:17
11. Two-Headed Boy, Part Two :: 05:13

Отчёт EAC:

Код:

Exact Audio Copy V1.0 beta 3 from 29. August 2011

EAC extraction logfile from 6. November 2012, 16:20

Neutral Milk Hotel / In the Aeroplane Over the Sea

Used drive  : hp      DVD-RAM UJ8B1   Adapter: 0  ID: 1

Read mode               : Secure
Utilize accurate stream : Yes
Defeat audio cache      : Yes
Make use of C2 pointers : No

Read offset correction                      : 6
Overread into Lead-In and Lead-Out          : No
Fill up missing offset samples with silence : Yes
Delete leading and trailing silent blocks   : No
Null samples used in CRC calculations       : Yes
Used interface                              : Native Win32 interface for Win NT & 2000

Used output format              : User Defined Encoder
Selected bitrate                : 896 kBit/s
Quality                         : High
Add ID3 tag                     : No
Command line compressor         : C:\Program Files (x86)\Exact Audio Copy\Flac\flac.exe
Additional command line options : -V -8 -T "Date=%year%" -T "Genre=%genre%" %source%

TOC of the extracted CD

     Track |   Start  |  Length  | Start sector | End sector
    ---------------------------------------------------------
        1  |  0:00.00 |  2:00.32 |         0    |     9031
        2  |  2:00.32 |  3:06.42 |      9032    |    23023
        3  |  5:06.74 |  3:22.42 |     23024    |    38215
        4  |  8:29.41 |  4:25.63 |     38216    |    58153
        5  | 12:55.29 |  1:53.08 |     58154    |    66636
        6  | 14:48.37 |  3:12.41 |     66637    |    81077
        7  | 18:01.03 |  1:57.25 |     81078    |    89877
        8  | 19:58.28 |  8:18.10 |     89878    |   127237
        9  | 28:16.38 |  4:08.27 |    127238    |   145864
       10  | 32:24.65 |  2:17.63 |    145865    |   156202
       11  | 34:42.53 |  5:13.11 |    156203    |   179688

Range status and errors

Selected range

     Filename C:\EAC Rip by Poweruss\Nn\Neutral Milk Hotel - In the Aeroplane Over the Sea [REWIGCD21] `1998\Neutral Milk Hotel - In the Aeroplane Over the Sea.wav

     Peak level 96.6 %
     Extraction speed 3.5 X
     Range quality 99.9 %
     Test CRC 9BC4D69E
     Copy CRC 9BC4D69E
     Copy OK

No errors occurred

AccurateRip summary

Track  1  cannot be verified as accurate (confidence 27)  [BCDEA85E], AccurateRip returned [E4C08531]  (AR v2)
Track  2  cannot be verified as accurate (confidence 27)  [C030E2C2], AccurateRip returned [31E18983]  (AR v2)
Track  3  cannot be verified as accurate (confidence 27)  [E35D6E59], AccurateRip returned [E329B1EE]  (AR v2)
Track  4  cannot be verified as accurate (confidence 26)  [E0E79C66], AccurateRip returned [3EFB333E]  (AR v2)
Track  5  cannot be verified as accurate (confidence 26)  [1445C7BF], AccurateRip returned [B08492E5]  (AR v2)
Track  6  cannot be verified as accurate (confidence 27)  [1E2725C9], AccurateRip returned [209517AB]  (AR v2)
Track  7  cannot be verified as accurate (confidence 27)  [CC7CC514], AccurateRip returned [8B1D3461]  (AR v2)
Track  8  cannot be verified as accurate (confidence 27)  [D7AAD18C], AccurateRip returned [ECC2F518]  (AR v2)
Track  9  cannot be verified as accurate (confidence 26)  [9D1F182B], AccurateRip returned [AD740390]  (AR v2)
Track 10  cannot be verified as accurate (confidence 26)  [C55C537C], AccurateRip returned [BA95896F]  (AR v2)
Track 11  cannot be verified as accurate (confidence 27)  [FEBF1ADA], AccurateRip returned [F38C0262]  (AR v2)

No tracks could be verified as accurate
You may have a different pressing from the one(s) in the database

End of status report

---- CUETools DB Plugin V2.1.3

[CTDB TOCID: 7hdyFnI8zqqi8RUsSHS6EAM84WM-] found, Submit result: 7hdyFnI8zqqi8RUsSHS6EAM84WM- has been confirmed
[6aba122b] (59/63) Accurately ripped
[e22e8583] (02/63) Differs in 32 samples @04:10:64
[e2288ed6] (01/63) No match
[0960b53e] (01/63) No match
You can use CUETools to repair this rip.

==== Log checksum 0EA429048D9ED3F105B0E0872F46DA6B6CFC85761035006DA9F2FE253E4915A6 ====

Отчёт auCDtect Task Manager:

Код:

-----------------------

DON'T MODIFY THIS FILE

-----------------------

PERFORMER: auCDtect Task Manager, ver. 1.5.1RC6 build 1.5.1.7
Copyright (c) 2008-2010 y-soft. All rights reserved
http://y-soft.org

ANALYZER: auCDtect: CD records authenticity detector, version 0.8.2
Copyright (c) 2004 Oleg Berngardt. All rights reserved.
Copyright (c) 2004 Alexander Djourik. All rights reserved.

FILE: Neutral Milk Hotel - In the Aeroplane Over the Sea.flac
  Size: 269550537 Hash: 456B3D68A46644141C747C3B6D4FD834 Accuracy: -m0
  Conclusion: CDDA 100%
  Signature: 4A1C86171B91889986561444262DD5C4ED2EB0FC

Содержание CUE:

Код:

REM GENRE "Alternative Rock, Lo-Fi, Indie Rock"
REM DATE 1998
REM DISCID 88095B0B
REM COMMENT "ExactAudioCopy v1.0b3"
PERFORMER "Neutral Milk Hotel"
TITLE "In the Aeroplane Over the Sea"
FILE "Neutral Milk Hotel - In the Aeroplane Over the Sea.flac" WAVE
  TRACK 01 AUDIO
    TITLE "The King of Carrot Flowers, Part One"
    PERFORMER "Neutral Milk Hotel"
    FLAGS DCP
    INDEX 01 00:00:00
  TRACK 02 AUDIO
    TITLE "The King of Carrot Flowers, Parts Two & Three"
    PERFORMER "Neutral Milk Hotel"
    FLAGS DCP
    INDEX 01 02:00:32
  TRACK 03 AUDIO
    TITLE "In the Aeroplane Over the Sea"
    PERFORMER "Neutral Milk Hotel"
    FLAGS DCP
    INDEX 00 05:06:53
    INDEX 01 05:06:74
  TRACK 04 AUDIO
    TITLE "Two-Headed Boy"
    PERFORMER "Neutral Milk Hotel"
    FLAGS DCP
    INDEX 00 08:28:22
    INDEX 01 08:29:41
  TRACK 05 AUDIO
    TITLE "The Fool"
    PERFORMER "Neutral Milk Hotel"
    FLAGS DCP
    INDEX 01 12:55:29
  TRACK 06 AUDIO
    TITLE "Holland, 1945"
    PERFORMER "Neutral Milk Hotel"
    FLAGS DCP
    INDEX 01 14:48:37
  TRACK 07 AUDIO
    TITLE "Communist Daughter"
    PERFORMER "Neutral Milk Hotel"
    FLAGS DCP
    INDEX 01 18:01:03
  TRACK 08 AUDIO
    TITLE "Oh Comely"
    PERFORMER "Neutral Milk Hotel"
    FLAGS DCP
    INDEX 01 19:58:28
  TRACK 09 AUDIO
    TITLE "Ghost"
    PERFORMER "Neutral Milk Hotel"
    FLAGS DCP
    INDEX 01 28:16:38
  TRACK 10 AUDIO
    TITLE "Untitled"
    PERFORMER "Neutral Milk Hotel"
    FLAGS DCP
    INDEX 01 32:24:65
  TRACK 11 AUDIO
    TITLE "Two-Headed Boy, Part Two"
    PERFORMER "Neutral Milk Hotel"
    FLAGS DCP
    INDEX 01 34:42:53

YouTube:



Доп.инфо:



Arranged By [Horns] – Robert Schneider, Scott Spillane
Art Direction – Chris Bilheimer, Jeff Mangum
Artwork [Flying Victrola] – Brian Dewan
Bagpipes [Uilleann] – Michelle Anderson
Drums, Organ – Jeremy Barnes
Guitar, Voice, Organ, Tom Tom [Floortom], Bass [Bowed Fuzz], Tape, Effects [Shortwave Radio] – Jeff Mangum
Organ [Home, Air], Bass [Fuzz], Backing Vocals [Harmony Vocal], Piano [One-note] – Robert Schneider
Organ [Wandering Genie], Saw [The Singing], Banjo [Bowed], Accordion, Noises [White Noise] – Julian Koster
Producer – Robert Schneider
Saxophone [Zanzithophone] – Laura Carter
Saxophone, Flugelhorn – Marisa Bissinger
Trombone – Rick Benejamin
Trumpet, Flugelhorn, Trombone, Euphonium – Scott Spillane
Written-By – Jeff Mangum (tracks: 1 to 4, 6 to 11), Barnes (tracks: 2), Koster (tracks: 2), S. Spillane (tracks: 2, 5)

Recorded in the Elephant 6 Recording Company July-Sept. 1997.



НЕ ЗАБЫВАЕМ ОСТАВЛЯТЬ КОММЕНТАРИИ И

Детали торрента:
Название:Neutral Milk Hotel - In the Aeroplane Over the Sea (1998) [FLAC|Lossless]<Psychodelic, Lo-Fi, Indie Rock, Folk>
Дата добавления:10 Ноя 2012 17:47:03
Размер:271 MB
Раздают:
Качают:0
Форум:Alternative, Punk (Lossless)

All rights reserved © 2015-2019