TORRENTS45.XYZ

Скачать [MP4 640х480] Воронины (2009) SATRip [Сезон 11, Серия 211-222]


Воронины (2009) SATRip [Сезон 11, Серия 211-222]
Русское название: Воронины
Год выпуска: 2009
Жанр: Комедия, Семейный
Платформа: MP4(640х480)
Дата российской премьеры: 16.11.2009
Режиссер: Георгий Дронов, Александр Жигалкин, Леонид Коновалов
Актеры: Георгий Дронов, Екатерина Волкова, Борис Клюев, Анна Фроловцева, Станислав Дужников
Перевод: Оригинал (настоящий)
Продолжительность: 04:40:57
Качество видео: SATRip
Видеокодек: MPEG-4 AVC/H.264
Битрейт видео: ~600 kb/s
Размер кадра: 640х480
Аудиокодек: AAC
Битрейт аудио: 128 kb/s


Описание фильма:
В обычном доме в трехкомнатной квартире живет молодая семья: Костя, его жена Вера и их дети – пятилетняя дочка и два маленьких сына-близнеца. Костя – известный спортивный журналист. Жена Вера любит его и ведет все хозяйство, а дети не доставляют много хлопот. Гораздо больше хлопот им приносят родители Кости, которые живут напротив на той же лестничной площадке… Воронины – это история о том, что иногда родственники бывают слишком близкими.

MediaInfo

Общее
Полное имя : I:\Воронины 214 серия.480.mp4
Формат : MPEG-4
Профиль формата : Base Media
Идентификатор кодека : isom
Размер файла : 119 Мбайт
Продолжительность : 23 м.
Режим общего битрейта : Переменный
Общий поток : 714 Кбит/сек
Программа кодирования : Lavf52.40.0

Видео
Идентификатор : 1
Формат : AVC
Формат/Информация : Advanced Video Codec
Профиль формата : High@L3.0
Параметр CABAC формата : Да
Параметр ReFrames формата : 3 кадра
Идентификатор кодека : avc1
Идентификатор кодека/Информация : Advanced Video Coding
Продолжительность : 23 м.
Duration_FirstFrame : 40 мс.
Битрейт : 600 Кбит/сек
Ширина : 640 пикселей
Высота : 480 пикселей
Соотношение сторон : 4:3
Режим частоты кадров : Постоянный
Частота кадров : 25,000 кадров/сек
Цветовое пространство : YUV
Субдискретизация насыщенности : 4:2:0
Битовая глубина : 8 бит
Тип развёртки : Прогрессивная
Бит/(Пиксели*Кадры) : 0.078
Размер потока : 96,9 Мбайт (81%)
Библиотека кодирования : x264 core 79
Настройки программы : cabac=1 / ref=3 / deblock=1:0:0 / analyse=0x3:0x113 / me=hex / subme=7 / psy=1 / psy_rd=1.0:0.0 / mixed_ref=1 / me_range=16 / chroma_me=1 / trellis=1 / 8x8dct=1 / cqm=0 / deadzone=21,11 / chroma_qp_offset=-2 / threads=24 / nr=0 / decimate=1 / mbaff=0 / constrained_intra=0 / bframes=3 / b_pyramid=0 / b_adapt=1 / b_bias=0 / direct=1 / wpredb=32 / wpredp=2 / keyint=250 / keyint_min=25 / scenecut=40 / rc_lookahead=40 / rc=abr / mbtree=1 / bitrate=600 / ratetol=6.7 / qcomp=0.60 / qpmin=10 / qpmax=51 / qpstep=4 / ip_ratio=1.41 / aq=1:1.00

Аудио
Идентификатор : 2
Формат : AAC
Формат/Информация : Advanced Audio Codec
Профиль формата : LC
Идентификатор кодека : 40
Продолжительность : 23 м.
Вид битрейта : Переменный
Битрейт : 128 Кбит/сек
Каналы : 2 канала
Расположение каналов : Front: L R
Частота : 44,1 КГц
Метод сжатия : С потерями
Задержка видео : -2 мс.
Размер потока : 21,4 Мбайт (18%)

Cкриншоты



Смотреть Online

http://moonwalk.cc/serial/bf825bda2496ca10420af2b3a7fc3ee6/iframe
Детали торрента:
Название:[MP4 640х480] Воронины (2009) SATRip [Сезон 11, Серия 211-222]
Дата добавления:20 Окт 2012 13:45:14
Размер:1,44 GB
Раздают:
Качают:0
Форум:Архив КПК и Мобильных устройств

All rights reserved © 2015-2018