TORRENTS45.XYZ

Скачать Gokudo-kun Mannyu-ki / Путешественник Гокудо [1999, TV, 26 из 26] TVRip hs+rus


ゴクドーくん漫遊記 / Gokudo-kun Mannyu-ki / Путешественник Гокудо
Жанр: приключения, комедия, фэнтези, пародия
Тип: TV-сериал
Количество серий: 26 из 26
Продолжительность: ТВ (26 эп.), 25 мин.
Дата премьеры / период выхода: c 02.04.1999 по 24.09.1999
Производство/студия: Trans Arts
Автор оригинала: Накамура Усаги
Режиссер: Сугисима Кунихиса

Качество видео: TVRip
Видео: MPEG-4 , 512x384, 23,976 кадра/сек, ~1192 Кбит/сек
Аудио #1: Любительский (одноголосый), MPEG Audio, 2 ch, 128 кбит/с, 44,1 КГц. Звук: Русский (поверх японского).
Аудио #2: MPEG Audio, 2 ch, 128кбит/с, 48 КГц. Звук: Японский

Тип субтитров: Русские подключаемые и HS
Язык неотключаемых субтитров: Английский

MediaInfo

Код:

Общее
Полное имя                               : N:\torrent\Gokudo\Gokudo-kun Mannyu-ki - 01.avi
Формат                                   : AVI
Формат/Информация                        : Audio Video Interleave
Размер файла                             : 237 Мбайт
Продолжительность                        : 22 м.
Общий поток                              : 1462 Кбит/сек
Программа кодирования                    : VirtualDubMod 1.5.10.1 (build 2366/release)
Библиотека кодирования                   : VirtualDubMod build 2366/release

Видео
Идентификатор                            : 0
Формат                                   : MPEG-4 Visual
Идентификатор кодека                     : DIV3
Идентификатор кодека/Подсказка           : DivX 3 Low
Продолжительность                        : 22 м.
Битрейт                                  : 1192 Кбит/сек
Ширина                                   : 512 пикселей
Высота                                   : 384 пикселя
Соотношение сторон                       : 4:3
Частота кадров                           : 23,976 кадра/сек
Цветовое пространство                    : YUV
Субдискретизация насыщенности            : 4:2:0
Битовая глубина                          : 8 бит
Метод сжатия                             : С потерями
Бит/(Пиксели*Кадры)                      : 0.253
Размер потока                            : 194 Мбайт (82%)

Аудио #1
Идентификатор                            : 1
Формат                                   : MPEG Audio
Версия формата                           : Version 1
Профиль формата                          : Layer 3
Режим                                    : Joint stereo
Расширение режима                        : MS Stereo
Идентификатор кодека                     : 55
Идентификатор кодека/Подсказка           : MP3
Продолжительность                        : 22 м.
Вид битрейта                             : Постоянный
Битрейт                                  : 128 Кбит/сек
Каналы                                   : 2 канала
Частота                                  : 44,1 КГц
Метод сжатия                             : С потерями
Размер потока                            : 20,8 Мбайт (9%)
Выравнивание                             : Разделение по промежуткам
Продолжительность промежутка             : 42  мс. (1,00 видеокадр)
Время предзагрузки промежутка            : 500  мс.

Аудио #2
Идентификатор                            : 2
Формат                                   : MPEG Audio
Версия формата                           : Version 1
Профиль формата                          : Layer 3
Идентификатор кодека                     : 55
Идентификатор кодека/Подсказка           : MP3
Продолжительность                        : 22 м.
Вид битрейта                             : Постоянный
Битрейт                                  : 128 Кбит/сек
Каналы                                   : 2 канала
Частота                                  : 48,0 КГц
Метод сжатия                             : С потерями
Размер потока                            : 20,8 Мбайт (9%)
Выравнивание                             : Разделение по промежуткам
Продолжительность промежутка             : 42  мс. (1,00 видеокадр)
Время предзагрузки промежутка            : 500  мс.
Библиотека кодирования                   : LAME3.88 (alpha 1)ЄЄ

Эпизоды:

01. Suddenly, I'm a Girl
02. I see many Brainless Guests Jumping into the Story. What a Nuisance!
03. I Challenge the King as Last. What a Show-down!
04. I Join a Race for Bridegrooms of 3 Princesses. What A Greed!
05. I Receive Unreasonable Riddles of Sphinx. What a Creature!
06. Don't Let Women Fool You
07. I am Startled at the True Face of the Third Man! What a Shock!
08. I See the Evil Smile falling upon the Country. What a Disgust!
09. I go down to the Castle of the Dragon King. What a Misfortune!
10. A Violent Girl makes sport of me! What a Disgrace!
11. I find a close Connection between Evil Spirits and Shakamummies. What a Fate!
12. A Battle for the Sacred Jewel among Gods, Demons and Shakamummies. What a Commotion!
13. What will InAho Kingdom be Tomorrow? What a Turnout!
14. A who is who- what is what Story. What a Nightmare!
15. First shape Change!. Then, size Change! What a Misery!
16. Where is my poor Body? What a Mystery!
17. The Attraction of the Fascinating Chingentzai Sisters. What a Crown!
18. What is the True Identity of the Boss Monkey in my Body? What a Struggle!
19. The World is Full of Love and Love! What a Melodrama!
20. Who is He? What is he? Whose Baby is He? … What a Birth!
21. Sanzoh Creates a Mess and Confusion! What a Battle!
22. What is Happiness? ... What a Question!
23. I want to get back my own Body. What Endurance!
24. I will get back in Full Power! … What a Bathing!
25. Am I dreaming- Surprise at Sunrise
26. Nobody can stop me any more. Just farewell! What a conclusion!
Описание:
Все началось, когда Гокудо украл мешочек у предсказателя, думая что там драгоценный камень. Вместо этого, там оказывается обломок скалы, из котрой появляется Джинн. Джинн предоставляет Гокудо три стандартных желания, но наш антигерой не задумывается особо о своих желаниях. Желания Гокудо выполняются не совсем так, как он ожидает. Лучшая вещь, которую он получил от своих пожеланий - магический меч, позволяющий его владельцу делать огненные атаки и который может быть призван в любом месте этого мира. Но даже с этим мечом, Гокудо не обретает уважения, так как Джинн превращает его в женщину. Он сопровождает Рубетт ла Лейт, потенциальную возлюбленную, которая больше интересуется приключениями, караоке и поражениями Гокудо. Гокудо много получает на свою голову, особенно от предсказателя, который на протяжении всех серий преследует главного героя. А в более поздних эпизодах Гокудо ждет еще один пинок в живот в виде бывшего злого мага по кличке Принц, более привлекательного и лучшего бабника, чем Гокудо.

Ссылки:
Ani-DB :: World Art
Скриншоты:


Смотреть Online

http://moonwalk.cc/serial/055692ad29a974c4375b9b063738ac49/iframe
Детали торрента:
Название:Gokudo-kun Mannyu-ki / Путешественник Гокудо [1999, TV, 26 из 26] TVRip hs+rus
Дата добавления:06 Окт 2012 22:37:43
Размер:7 GB
Раздают:
Качают:0
Форум:Аниме хардсаб

All rights reserved © 2015-2018