TORRENTS45.XYZ

Скачать В ожидании дождя / Čekání na déšť (1978) TVRip


В ожидании дождя / Čekání na déšť (1978) TVRip
Русское название: В ожидании дождя
Оригинальное название: Čekání na déšť
Страна: Чехословакия (ЧССР)
Год выпуска: 1978
Жанр: Мелодрама, Драма

Описание фильма:
Август. Жаркое пражское лето. Одиннадцатилетняя Алена вынуждена остаться в городе одна без своих закадычных подруг. Во дворе остался лишь один рыжеволосый мальчишка, с которым отношения как-то не заладились. Мама целый день на работе, у отца другая семья, и Алена целыми днями предоставлена сама себе. Спасаясь от скуки, она старается хоть как-то себя развлечь - устраивает домашнее караоке, влюбляется в живущую в соседнем подъезде кинозвезду, пытаясь обратить на себя его внимание и воображая их страстный "телефонный роман". Алена подсознательно пытается найти себе друзей - но не так-то просто приобрести их среди полупустынных улиц, раскаленных горячим бетоном новостроек. Радостным моментом становится приятельское общение с незрячим пожилым инженером и его дружелюбной овчаркой, а затем и с молодым соседом - солдатом, приехавшим в отпуск. Первая детская любовь, надежды, разочарования, разлука - всё это переживёт героиня фильма, пытаясь найти своё место "под солнцем". И смыть накопившееся внутреннее эмоциональное напряжение может только прохлада долгожданного дождя...

Режиссер: Карел Кахиня / Karel Kachyňa
Актеры: Дита Капланова, Зденек Седлачек, Ладислава Коздеркова, Зденек Ржегорж, Йосеф Сомр, Михал Хофбауэр, Марие Мотлова, Иржи Бартошка, Моника Халова, Марта Рихтерова, Бретислав Словачек и др.

Продолжительность: 01:09:36
Перевод: Одноголосый закадровый - Stalk
Язык: RU, CZ
Автор перевода: Kilosa
Релиз группа: Феникс
Язык субтитров: Русские Kilosa @ Johnnyleo
Вид субтитров: Отдельным файлом



Дата мировой премьеры: 1 октября 1978 (Чехословакия)

Видеокодек: Xvid
Битрейт видео: ~2380 kb/s
Размер кадра: 688x512 (4:3)
Качество видео: TVRip
Аудиокодек: MP3
Битрейт аудио:
Аудио 1: 128 Кбит/сек, 2 канала, 48 КГц, mp3 (русский - VO Stalk)
Аудио 2: 192 Кбит/сек, 2 канала, 48 КГц, mp3 (чешский)
Сэмпл: Ссылка

MediaInfo

Формат : AVI
Формат/Информация : Audio Video Interleave
Размер файла : 1,32 Гбайт
Продолжительность : 1 ч. 9 м.
Общий поток : 2714 Кбит/сек
Программа кодирования : VirtualDubMod 1.5.10.2 (build 2540/release)
Библиотека кодирования : VirtualDubMod build 2540/release

Видео
Идентификатор : 0
Формат : MPEG-4 Visual
Профиль формата : Advanced Simple@L5
Параметр BVOP формата : 2
Параметр QPel формата : Нет
Параметр GMC формата : Без точки перехода
Параметр матрицы формата : Default (MPEG)
Режим смешивания : Сжатый битовый поток
Идентификатор кодека : XVID
Идентификатор кодека/Подсказка : XviD
Продолжительность : 1 ч. 9 м.
Битрейт : 2380 Кбит/сек
Ширина : 688 пикселей
Высота : 512 пикселей
Соотношение сторон : 4:3
Частота кадров : 25,000 кадров/сек
Цветовое пространство : YUV
Субдискретизация насыщенности : 4:2:0
Битовая глубина : 8 бит
Тип развёртки : Прогрессивная
Метод сжатия : С потерями
Бит/(Пиксели*Кадры) : 0.270
Размер потока : 1,16 Гбайт (88%)
Библиотека кодирования : XviD 64

Аудио #1
Идентификатор : 1
Формат : MPEG Audio
Версия формата : Version 1
Профиль формата : Layer 3
Режим : Joint stereo
Расширение режима : MS Stereo
Идентификатор кодека : 55
Идентификатор кодека/Подсказка : MP3
Продолжительность : 1 ч. 9 м.
Вид битрейта : Постоянный
Битрейт : 128 Кбит/сек
Каналы : 2 канала
Частота : 48,0 КГц
Метод сжатия : С потерями
Размер потока : 63,7 Мбайт (5%)
Выравнивание : Соединение по промежуткам
Продолжительность промежутка : 40 мс. (1,00 видеокадр)
Время предзагрузки промежутка : 504 мс.

Аудио #2
Идентификатор : 2
Формат : MPEG Audio
Версия формата : Version 1
Профиль формата : Layer 3
Идентификатор кодека : 55
Идентификатор кодека/Подсказка : MP3
Продолжительность : 1 ч. 9 м.
Вид битрейта : Постоянный
Битрейт : 192 Кбит/сек
Каналы : 2 канала
Частота : 48,0 КГц
Метод сжатия : С потерями
Задержка видео : 144 мс.
Размер потока : 95,6 Мбайт (7%)
Выравнивание : Соединение по промежуткам
Продолжительность промежутка : 40 мс. (1,00 видеокадр)
Время предзагрузки промежутка : 504 мс.
Скриншоты:

Рецензия, отзыв о фильме

Выдающийся чешский режиссер Карел Кахиня продолжил череду своих киношедевров, снятых в конце 70-х годов. Режиссеру в очередной раз удалось создать осязаемо-поэтическую картинку наполненную многогранным очарованием. Окружающий и внутренний мир юной героини фильма, заключенный в эстетике типовых пражских многоэтажек времен "нормализации", её попытки своей ещё детской непосредственностью вырваться из эмоционального гнетущего вынужденного одиночества - всё эти моменты Кахиня вырисовывает с особой теплотой и шармом, мастерски передавая атмосферу и ощущения героев зрителям. Полноправными соавторам картины стал композитор Зденек Лишка, чья великолепная музыка просто идеально легла в сюжетную канву, придав картине ещё более яркое эмоциональное звучание. И, конечно, огромной удачей Кахини стало приглашение на главную роль Диты Каплановой. То, с каким врожденным мастерством, вдохновением и непосредственностью юная актриса исполняет свою роль, стало для режиссера настоящим откровением в процессе съёмок - и Кахиня не побоялся отдать Дите Каплановой практически 100% экранного времени, лишь добавляя к картине своей режиссерской кисточкой мазки романтики, грусти, провокации или юмора...

Награды:
1978 год - Гран-При XVIII кинофестиваля молодёжных фильмов в Готвальдове (ЧССР) - приз "Золотой башмак" , а также приз жюри фестиваля (Дита Капланова) и приз зрителей
1978 год - Приз за лучшую женскую роль (Дита Капланова) 10-го республиканского фестиваля детских фильмов в Острове-над-Огржей(ЧССР)
1979 год - Приз профессионального жюри на 17-ом Международном кинофестивале для детей и юношества в Хихоне (Испания)
1979 год - Приз за Лучший молодежный фильм года на 10-м международном кинофестивале "Progressfilm" в Брюсселе (Бельгия)
1979 год - Первый приз и приз жюри Международного молодёжного кинофестиваля в Линце (Австрия)
Детали торрента:
Название:В ожидании дождя / Čekání na déšť (1978) TVRip
Дата добавления:06 Окт 2012 06:57:10
Размер:1,32 GB
Раздают:
Качают:0
Форум:Старые Зарубежные Фильмы (HD*Rip/LQ, DVDRip, SATRip, VHSRip)

All rights reserved © 2015-2018