TORRENTS45.XYZ

Скачать Electric Light Orchestra - Mr. Blue Sky: The Very Best of Electric Light Orchestra (2012) /WEB / [FLAC|Lossless]<Progressive Rock>


Electric Light Orchestra - Mr. Blue Sky: The Very Best of Electric Light Orchestra (2012)
Год: 2012
Издание: WEB
Каталог№:
Жанр: Progressive Rock
Источник : orkyl
Сканы: Нет
Продолжительность: 00:48:51

Кодек: FLAC
Тип рипа: Tracks+.cue
Битрейт: Lossless
Трек лист:
01. Mr. Blue Sky (3:44)
02. Evil Woman (4:30)
03. Strange Magic (3:53)
04. Don't Bring Me Down (4:01)
05. Turn to Stone (3:46)
06. Showdown (4:16)
07. Telephone Line (4:30)
08. Livin' Thing (3:42)
09. Do Ya (3:56)
10. Can't Get It Out of My Head (4:35)
11. 10538 Overture (40th Anniversary Edition) (4:44)
12. Point of No Return (3:14)

Содержимое индексной карты:

REM ACCURATERIPID 0015c557-00cbaf4b-ab0b730c
REM COMMENT "CUETools generated dummy CUE sheet"
PERFORMER "Electric Light Orchestra"
TITLE "Mr. Blue Sky - The Very Best of Electric Light Orchestra"
REM DATE 2012
FILE "01 - Mr. Blue Sky.flac" WAVE
TRACK 01 AUDIO
PERFORMER "Electric Light Orchestra"
TITLE "Mr. Blue Sky"
INDEX 01 00:00:00
FILE "02 - Evil Woman.flac" WAVE
TRACK 02 AUDIO
PERFORMER "Electric Light Orchestra"
TITLE "Evil Woman"
INDEX 01 00:00:00
FILE "03 - Strange Magic.flac" WAVE
TRACK 03 AUDIO
PERFORMER "Electric Light Orchestra"
TITLE "Strange Magic"
INDEX 01 00:00:00
FILE "04 - Don't Bring Me Down.flac" WAVE
TRACK 04 AUDIO
PERFORMER "Electric Light Orchestra"
TITLE "Don't Bring Me Down"
INDEX 01 00:00:00
FILE "05 - Turn to Stone.flac" WAVE
TRACK 05 AUDIO
PERFORMER "Electric Light Orchestra"
TITLE "Turn to Stone"
INDEX 01 00:00:00
FILE "06 - Showdown.flac" WAVE
TRACK 06 AUDIO
PERFORMER "Electric Light Orchestra"
TITLE "Showdown"
INDEX 01 00:00:00
FILE "07 - Telephone Line.flac" WAVE
TRACK 07 AUDIO
PERFORMER "Electric Light Orchestra"
TITLE "Telephone Line"
INDEX 01 00:00:00
FILE "08 - Livin' Thing.flac" WAVE
TRACK 08 AUDIO
PERFORMER "Electric Light Orchestra"
TITLE "Livin' Thing"
INDEX 01 00:00:00
FILE "09 - Do Ya.flac" WAVE
TRACK 09 AUDIO
PERFORMER "Electric Light Orchestra"
TITLE "Do Ya"
INDEX 01 00:00:00
FILE "10 - Can't Get It Out of My Head.flac" WAVE
TRACK 10 AUDIO
PERFORMER "Electric Light Orchestra"
TITLE "Can't Get It Out of My Head"
INDEX 01 00:00:00
FILE "11 - 10538 Overture (40th Anniversary Edition).flac" WAVE
TRACK 11 AUDIO
PERFORMER "Electric Light Orchestra"
TITLE "10538 Overture (40th Anniversary Edition)"
INDEX 01 00:00:00
FILE "12 - Point of No Return.flac" WAVE
TRACK 12 AUDIO
PERFORMER "Electric Light Orchestra"
TITLE "Point of No Return"
INDEX 01 00:00:00

Отчёт auCDtect Task manager:

Код:

-----------------------

DON'T MODIFY THIS FILE

-----------------------

PERFORMER: auCDtect Task Manager, ver. 1.5.1RC6 build 1.5.1.7
Copyright (c) 2008-2010 y-soft. All rights reserved
http://y-soft.org

ANALYZER: auCDtect: CD records authenticity detector, version 0.8.2
Copyright (c) 2004 Oleg Berngardt. All rights reserved.
Copyright (c) 2004 Alexander Djourik. All rights reserved.

FILE: 12 - Point of No Return.flac
  Size: 22520389 Hash: E58A163DECC5171D5B69E94D89017BA3 Accuracy: -m0
  Conclusion: CDDA 99%
  Signature: BFD31E3E9C574FBABD3AF5235C2347F4FFA05A89
FILE: 11 - 10538 Overture (40th Anniversary Edition).flac
  Size: 32544272 Hash: 9E5BFF54129A85CDE8B2808A95004DEE Accuracy: -m0
  Conclusion: CDDA 100%
  Signature: D97CB0B9E527CE1E77360E8A81CAD9FB2523E626
FILE: 10 - Can't Get It Out of My Head.flac
  Size: 32359354 Hash: CFC2FD5452B6510A99DD396E9A233BA7 Accuracy: -m0
  Conclusion: CDDA 100%
  Signature: DB85074E97A535DF201D773784AADE293B8AEBCB
FILE: 09 - Do Ya.flac
  Size: 28266085 Hash: 4BFBC5A7ECD0272C1B7E4028D927A453 Accuracy: -m0
  Conclusion: CDDA 100%
  Signature: BBDA91CD9606B44BDC08A93E4B9FC34F52C82326
FILE: 08 - Livin' Thing.flac
  Size: 26495986 Hash: 00DD217281EABD4C6041A3478F5C27B4 Accuracy: -m0
  Conclusion: CDDA 100%
  Signature: F516406CCFD1643BE7A8EE67FFA5E7CAD995BF81
FILE: 07 - Telephone Line.flac
  Size: 28576456 Hash: 2684600DD6D50A27E3EBF03FDF8A751F Accuracy: -m0
  Conclusion: CDDA 100%
  Signature: 96253068EDE3D1EEC7038A47490C01831A58B4A8
FILE: 06 - Showdown.flac
  Size: 30337231 Hash: 689D98E4EE47430BB14DE68A9010195B Accuracy: -m0
  Conclusion: CDDA 100%
  Signature: EE6FD772A8BAC4747F4AA3A2A71DA1DB4611A19C
FILE: 05 - Turn to Stone.flac
  Size: 26239514 Hash: 7D4B1981379D970A46E7A8C2BAFFEBDA Accuracy: -m0
  Conclusion: CDDA 100%
  Signature: F03E45A665E021BFF0FABA98C382ECD217C0D876
FILE: 04 - Don't Bring Me Down.flac
  Size: 32542212 Hash: C1CE27FE19839759EA7386436CF50C5B Accuracy: -m0
  Conclusion: CDDA 100%
  Signature: A7CBDB7FBFD809E5BB1B497978B8659ADBD68E09
FILE: 03 - Strange Magic.flac
  Size: 23957043 Hash: E932F6D161DEF430ED13A5ABFA33F277 Accuracy: -m0
  Conclusion: CDDA 99%
  Signature: 4955000AB2ED97465C02C834C1727AA93FFA4B3B
FILE: 02 - Evil Woman.flac
  Size: 31361577 Hash: FAC1868EA9A644D3DF7662D08143471E Accuracy: -m0
  Conclusion: CDDA 100%
  Signature: 8E75BE0ADFCD8DD478CA6B2FD5EDAFEE5EE9D603
FILE: 01 - Mr. Blue Sky.flac
  Size: 26269913 Hash: DDB45D6F788AD586C92D294DC683011C Accuracy: -m0
  Conclusion: CDDA 100%
  Signature: CA4523FEAC9F067E96483A020258042A5106F029


Детали торрента:
Название:Electric Light Orchestra - Mr. Blue Sky: The Very Best of Electric Light Orchestra (2012) /WEB / [FLAC|Lossless]<Progressive Rock>
Дата добавления:05 Окт 2012 17:28:08
Размер:326 MB
Раздают:
Качают:0
Форум:Rock (Lossless)

All rights reserved © 2015-2018