TORRENTS45.XYZ

Скачать Танкодром (1981) SATRip


Танкодром (1981) SATRip
Русское название: Танкодром
Год выпуска: 1981
Производство: Киностудия им. A. Довженко
Жанр: Военный, киноповесть

Описание фильма:
О создании в конструкторском бюро Министерства обороны новейших приборов ночного видения. В центре фильма — образ молодого командира танковой роты капитана Сергея Кольцова, физика по образованию, испытывающего эти системы

Режиссер: Владимир Довгань
Актеры: Николай Сектименко, Елена Ивочкина, Анатолий Ромашин, Владимир Самойлов, Евгений Киндинов, Александр Ануров, Вячеслав Гостинский, Мурад Джанибекян, Виталий Дорошенко, Анатолий Матешко, Павел Морозенко, Николай Олейник, Виталий Розстальный, Игорь Славинский, Нина Ургант, Игорь Черницкий

Продолжительность: 01:13:34+01:05:24

Видеокодек: DivX 5
Битрейт видео: ~1900 Кбит/сек
Размер кадра: 720x544
Качество видео: SATRip
Аудиокодек: MP3
Битрейт аудио: 112 Кбит/сек

Дополнительные сведения о фильме:

Фильм снимался в учебном центре Киевского высшего танкогового инженерного ордена Красной звезды училища имени Маршала Советского Союза Якубовского И.И. В первых кадрах фильма генерал-лейтенант говорит: "Хотелось бы знать, как идет работа над прибором ночного видения под названием "Сова". Это генерал-лейтенант Колесников Михаил Федосеевич - в те годы начальник училища. Съемки проходили в учебном центре Гореничи недалеко от Киева.

MediaInfo cерия 1:

Общее
Полное имя : G:\new 092012\Танкодром\Танкодром\tankodrom.1.avi
Формат : AVI
Формат/Информация : Audio Video Interleave
Размер файла : 1,04 Гбайт
Продолжительность : 1 ч. 13 м.
Общий поток : 2022 Кбит/сек
Библиотека кодирования : VirtualDub build 32706/release

Видео
Идентификатор : 0
Формат : MPEG-4 Visual
Параметр BVOP формата : 1
Параметр QPel формата : Нет
Параметр GMC формата : Без точки перехода
Параметр матрицы формата : Default (H.263)
Режим смешивания : Сжатый битовый поток
Идентификатор кодека : DX50
Идентификатор кодека/Подсказка : DivX 5
Продолжительность : 1 ч. 13 м.
Битрейт : 1900 Кбит/сек
Ширина : 720 пикселей
Высота : 544 пикселя
Соотношение сторон : 4:3
Частота кадров : 25,000 кадров/сек
Цветовое пространство : YUV
Субдискретизация насыщенности : 4:2:0
Битовая глубина : 8 бит
Тип развёртки : Прогрессивная
Метод сжатия : С потерями
Бит/(Пиксели*Кадры) : 0.194
Размер потока : 1000 Мбайт (94%)
Библиотека кодирования : DivX 6.8.5 (UTC 2009-08-20)

Аудио
Идентификатор : 1
Формат : MPEG Audio
Версия формата : Version 1
Профиль формата : Layer 3
Идентификатор кодека : 55
Идентификатор кодека/Подсказка : MP3
Продолжительность : 1 ч. 13 м.
Вид битрейта : Постоянный
Битрейт : 112 Кбит/сек
Каналы : 1 канал
Частота : 48,0 КГц
Метод сжатия : С потерями
Размер потока : 58,9 Мбайт (6%)
Выравнивание : Разделение по промежуткам
Продолжительность промежутка : 40 мс. (1,00 видеокадр)
Время предзагрузки промежутка : 500 мс.

MediaInfo серия 2:

Общее
Полное имя : G:\new 092012\Танкодром\Танкодром\tankodrom.2.avi
Формат : AVI
Формат/Информация : Audio Video Interleave
Размер файла : 1,06 Гбайт
Продолжительность : 1 ч. 5 м.
Общий поток : 2329 Кбит/сек
Библиотека кодирования : VirtualDub build 32706/release

Видео
Идентификатор : 0
Формат : MPEG-4 Visual
Параметр BVOP формата : 1
Параметр QPel формата : Нет
Параметр GMC формата : Без точки перехода
Параметр матрицы формата : Default (H.263)
Режим смешивания : Сжатый битовый поток
Идентификатор кодека : DX50
Идентификатор кодека/Подсказка : DivX 5
Продолжительность : 1 ч. 5 м.
Битрейт : 2207 Кбит/сек
Ширина : 720 пикселей
Высота : 544 пикселя
Соотношение сторон : 4:3
Частота кадров : 25,000 кадров/сек
Цветовое пространство : YUV
Субдискретизация насыщенности : 4:2:0
Битовая глубина : 8 бит
Тип развёртки : Прогрессивная
Метод сжатия : С потерями
Бит/(Пиксели*Кадры) : 0.225
Размер потока : 1,01 Гбайт (95%)
Библиотека кодирования : DivX 6.8.5 (UTC 2009-08-20)

Аудио
Идентификатор : 1
Формат : MPEG Audio
Версия формата : Version 1
Профиль формата : Layer 3
Идентификатор кодека : 55
Идентификатор кодека/Подсказка : MP3
Продолжительность : 1 ч. 5 м.
Вид битрейта : Постоянный
Битрейт : 112 Кбит/сек
Каналы : 1 канал
Частота : 48,0 КГц
Метод сжатия : С потерями
Размер потока : 52,4 Мбайт (5%)
Выравнивание : Разделение по промежуткам
Продолжительность промежутка : 40 мс. (1,00 видеокадр)
Время предзагрузки промежутка : 500 мс.
Скриншоты:


Детали торрента:
Название:Танкодром (1981) SATRip
Дата добавления:30 Сен 2012 21:14:11
Размер:2,1 GB
Раздают:
Качают:0
Форум:Старые Отечественные Фильмы (HD*Rip/LQ, DVDRip, SATRip, VHSRip)

All rights reserved © 2015-2019