TORRENTS45.XYZ

Скачать Жажда смерти 2 / Death Wish II (1982) BDRip


Жажда смерти 2 / Death Wish II (1982) BDRip
Русское название: Жажда смерти 2
Оригинальное название: Death Wish II
Год выпуска: 1982
Жанр: Боевик, Триллер, Драма

Описание фильма:
Архитектор Пол Керси переезжает из Нью-Йорка в Лос-Анджелес. И вместе с ним, кажется, переезжают все мыслимые и немыслимые напасти. Совсем недавно погибла жена Керси. А теперь банда подонков насилует и убивает его служанку, а дочь кончает жизнь самоубийством. Пришло время Полу снова взяться за оружие и выйти на ночную охоту...

Режиссер: Майкл Уиннер
Актеры: Чарльз Бронсон, Джилл Айрленд, Винсент Гардения, Дж.Д. Кэннон, Энтони Франчоза, Бен Фрэнк, Робин Шервуд, Сильвана Галлардо, Роберт Ф. Лайонс, Майкл Принц

Продолжительность: 01:28:51
Перевод: Профессиональный (многоголосый, закадровый) + Авторский, одноголосый А.Михалева + Авторский, одноголосый А.Савченко + Авторский одноголосый, А.Гаврилова
Релиз группа:
Язык субтитров: Русские, английские SDH (внешние .srt)
Вид субтитров: Вшитые (отключаемые)



Видеокодек: Xvid
Битрейт видео: ~1842 kb/s
Размер кадра: 704x384
Качество видео: BDRip
Аудио:
Аудио#1:
48 kHz, AC3 Dolby Digital, 2/0 (L,R), ~192.00 kb/s avg - Профессиональный (многоголосый, закадровый)
Аудио#2: 48 kHz, AC3 Dolby Digital, 2/0 (L,R), ~192.00 kb/s avg - Авторский одноголосый А.Михалева
Аудио#3: 48 kHz, AC3 Dolby Digital, 1/0 (C), ~96.00 kb/s avg - Английский
Аудио#4: 48 kHz, AC3 Dolby Digital, 2/0 (L,R), ~192.00 kb/s avg (отдельно! Narod.Ru) - Авторский одноголосый А.Савченко
Аудио#5: 48 kHz, AC3 Dolby Digital, 1/0 (C), ~96.00 kb/s avg (отдельно! Narod.Ru) - Авторский одноголосый А.Гаврилова

MediaInfo

Общее
Полное имя : D:\Торрент раздача\Zhazhda.smerti.2.1982.TRIPLE.BDRip.XviD.AC3.-HQCLUB\Zhazhda.smerti.2.1982.TRIPLE.BDRip.XviD.AC3.-HQCLUB.avi
Формат : AVI
Формат/Информация : Audio Video Interleave
Размер файла : 1,45 Гбайт
Продолжительность : 1 ч. 28 м.
Общий поток : 2342 Кбит/сек
Название фильма : Жажда смерти 2 / Death Wish II (1982) BDRip
Программа кодирования : VirtualDubMod 1.5.10.2 (build 2542/release)
Примечание : 14.09.2012

Видео
Идентификатор : 0
Формат : MPEG-4 Visual
Профиль формата : Advanced Simple@L5
Параметр BVOP формата : 1
Параметр QPel формата : Нет
Параметр GMC формата : Без точки перехода
Параметр матрицы формата : Выборочная
Идентификатор кодека : XVID
Идентификатор кодека/Подсказка : XviD
Продолжительность : 1 ч. 28 м.
Битрейт : 1843 Кбит/сек
Ширина : 704 пикселя
Высота : 384 пикселя
Соотношение сторон : 1,85:1
Частота кадров : 23,976 кадра/сек
Цветовое пространство : YUV
Субдискретизация насыщенности : 4:2:0
Битовая глубина : 8 бит
Тип развёртки : Прогрессивная
Метод сжатия : С потерями
Бит/(Пиксели*Кадры) : 0.284
Размер потока : 1,14 Гбайт (79%)
Библиотека кодирования : XviD 65

Аудио #1
Идентификатор : 1
Формат : AC-3
Формат/Информация : Audio Coding 3
Расширение режима : CM (complete main)
Параметр Endianness формата : Big
Идентификатор кодека : 2000
Продолжительность : 1 ч. 28 м.
Вид битрейта : Постоянный
Битрейт : 192 Кбит/сек
Каналы : 2 канала
Расположение каналов : Front: L R
Частота : 48,0 КГц
Битовая глубина : 16 бит
Метод сжатия : С потерями
Размер потока : 122 Мбайт (8%)
Выравнивание : Разделение по промежуткам
Продолжительность промежутка : 42 мс. (1,00 видеокадр)
Время предзагрузки промежутка : 500 мс.

Аудио #2
Идентификатор : 2
Формат : AC-3
Формат/Информация : Audio Coding 3
Расширение режима : CM (complete main)
Параметр Endianness формата : Big
Идентификатор кодека : 2000
Продолжительность : 1 ч. 28 м.
Вид битрейта : Постоянный
Битрейт : 192 Кбит/сек
Каналы : 2 канала
Расположение каналов : Front: L R
Частота : 48,0 КГц
Битовая глубина : 16 бит
Метод сжатия : С потерями
Размер потока : 122 Мбайт (8%)
Выравнивание : Разделение по промежуткам
Продолжительность промежутка : 42 мс. (1,00 видеокадр)
Время предзагрузки промежутка : 500 мс.

Аудио #3
Идентификатор : 3
Формат : AC-3
Формат/Информация : Audio Coding 3
Расширение режима : CM (complete main)
Параметр Endianness формата : Big
Идентификатор кодека : 2000
Продолжительность : 1 ч. 28 м.
Вид битрейта : Постоянный
Битрейт : 96,0 Кбит/сек
Каналы : 1 канал
Расположение каналов : Front: C
Частота : 48,0 КГц
Битовая глубина : 16 бит
Метод сжатия : С потерями
Размер потока : 61,0 Мбайт (4%)
Выравнивание : Разделение по промежуткам
Продолжительность промежутка : 42 мс. (1,00 видеокадр)
Время предзагрузки промежутка : 500 мс.

Общее
Полное имя : D:\Торрент раздача\Zhazhda.smerti.2.1982.TRIPLE.BDRip.XviD.AC3.-HQCLUB\Zhazhda.smerti.2.1982.TRIPLE.BDRip.XviD.AC3.-HQCLUB.ENG.SDH.srt
Размер файла : 54,3 Кбайт

Общее
Полное имя : D:\Торрент раздача\Zhazhda.smerti.2.1982.TRIPLE.BDRip.XviD.AC3.-HQCLUB\Zhazhda.smerti.2.1982.TRIPLE.BDRip.XviD.AC3.-HQCLUB.RUS.srt
Формат : SubRip
Размер файла : 44,2 Кбайт

Текст
Формат : SubRip
Метод сжатия : Без потерь
Скриншоты:

Смотреть Online

http://moonwalk.cc/video/faf70ab51cf29e15/iframe
Детали торрента:
Название:Жажда смерти 2 / Death Wish II (1982) BDRip
Дата добавления:14 Сен 2012 22:14:41
Размер:1,45 GB
Раздают:2
Качают:0
Форум:Зарубежные Фильмы (HD*Rip/LQ, DVDRip, SATRip, VHSRip)

All rights reserved © 2015-2018