TORRENTS45.XYZ

Скачать Cinderella - Still Climbing (1994) /2002, Monsters Of Rock Records/ [FLAC|Lossless]<Hard Rock>


Cinderella - Still Climbing (1994)
Страна: USA
Год: 1994
Жанр: Hard Rock
Продолжительность: 00:56:55
Лейбл: Monsters Of Rock Records
Каталожный №: MOFR 00151
Сканы: Комплект

Кодек: FLAC (image+.cue)
Битрейт: Lossless

Треклист:
01. Bad Attitude Shuffle [5:32]
02. All Comes Down [5:02]
03. Talk Is Cheap [4:01]
04. Hard To Find The Words [5:46]
05. Blood From A Stone [4:52]
06. Still Climbing [5:22]
07. Freewheelin' [3:08]
08. Through The Rain [5:07]
09. Easy Come, Easy Go [4:35]
10. The Road's Still Long [6:08]
11. Hot & Bothered* [3:57]
12. Move Over (Bonus Track) [3:25]


Содержимое индексной карты (.cue):

Код:

REM GENRE "Hard Rock"
REM DATE 2002
REM DISCID 970D570C
REM COMMENT "ExactAudioCopy v1.0b3"
CATALOG 0000000000000
PERFORMER "Cinderella"
TITLE "Still Climbing"
FILE "Cinderella - Still Climbing.flac" WAVE
  TRACK 01 AUDIO
    TITLE "Bad Attitude Shuffle"
    PERFORMER "Cinderella"
    INDEX 01 00:00:00
  TRACK 02 AUDIO
    TITLE "All Comes Down"
    PERFORMER "Cinderella"
    INDEX 01 05:32:35
  TRACK 03 AUDIO
    TITLE "Talk Is Cheap"
    PERFORMER "Cinderella"
    INDEX 01 10:34:72
  TRACK 04 AUDIO
    TITLE "Hard To Find The Words"
    PERFORMER "Cinderella"
    INDEX 01 14:36:30
  TRACK 05 AUDIO
    TITLE "Blood From a Stone"
    PERFORMER "Cinderella"
    INDEX 01 20:21:70
  TRACK 06 AUDIO
    TITLE "Still Climbing"
    PERFORMER "Cinderella"
    INDEX 01 25:13:47
  TRACK 07 AUDIO
    TITLE "Freewheelin'"
    PERFORMER "Cinderella"
    INDEX 01 30:35:47
  TRACK 08 AUDIO
    TITLE "Through The Rain"
    PERFORMER "Cinderella"
    INDEX 01 33:43:42
  TRACK 09 AUDIO
    TITLE "Easy Come, Easy Go"
    PERFORMER "Cinderella"
    INDEX 01 38:50:10
  TRACK 10 AUDIO
    TITLE "The Road's Still Long"
    PERFORMER "Cinderella"
    INDEX 01 43:24:62
  TRACK 11 AUDIO
    TITLE "Hot & Bothered*"
    PERFORMER "Cinderella"
    INDEX 01 49:32:67
  TRACK 12 AUDIO
    TITLE "Move Over (Bonus Track)"
    PERFORMER "Cinderella"
    INDEX 01 53:29:62

Отчёт ЕАС:

Код:

Exact Audio Copy V1.0 beta 3 from 29. August 2011

Отчёт EAC об извлечении, выполненном 14. сентября 2012, 7:32

Cinderella / Still Climbing

Дисковод: ATAPI   DVD A  DH16ABSH   Adapter: 0  ID: 1

Режим чтения                 : Достоверность
Использование точного потока : Да
Отключение кэша аудио        : Да
Использование указателей C2  : Нет

Коррекция смещения при чтении                     : 6
Способность читать области Lead-in и Lead-out     : Нет
Заполнение пропущенных сэмплов тишиной            : Да
Удаление блоков с тишиной в начале и конце        : Нет
При вычислениях CRC использовались нулевые сэмплы : Да
Интерфейс                                         : Встроенный Win32-интерфейс для Win NT/2000

Выходной формат          : Пользовательский кодировщик
Выбранный битрейт        : 768 kBit/s
Качество                 : Высокий
Добавление ID3-тега      : Нет
Утилита сжатия           : C:\Program Files (x86)\Exact Audio Copy\FLAC\FLAC.EXE
Дополнительные параметры : -V -8 -T "Date=%year%" -T "Genre=%genre%" %source%

TOC извлечённого CD

     Трек |   Старт  | Длительность | Начальный сектор | Конечный сектор
    ---------------------------------------------------------------------
       1  |  0:00.00 |    5:32.35   |           0      |      24934
       2  |  5:32.35 |    5:02.37   |       24935      |      47621
       3  | 10:34.72 |    4:01.33   |       47622      |      65729
       4  | 14:36.30 |    5:45.40   |       65730      |      91644
       5  | 20:21.70 |    4:51.52   |       91645      |     113521
       6  | 25:13.47 |    5:22.00   |      113522      |     137671
       7  | 30:35.47 |    3:07.70   |      137672      |     151766
       8  | 33:43.42 |    5:06.43   |      151767      |     174759
       9  | 38:50.10 |    4:34.52   |      174760      |     195361
      10  | 43:24.62 |    6:08.05   |      195362      |     222966
      11  | 49:32.67 |    3:56.70   |      222967      |     240736
      12  | 53:29.62 |    3:25.15   |      240737      |     256126

Характеристики диапазона извлечения и сообщения об ошибках

Выбранный диапазон

     Имя файла C:\Cinderella - Still Climbing (1994.2002)\Cinderella - Still Climbing.wav

     Пиковый уровень 100.0 %
     Скорость извлечения 6.2 X
     Качество диапазона 100.0 %
     CRC теста 658216C9
     CRC копии 658216C9
     Копирование... OK

Ошибок не произошло

AccurateRip: сводка

Трек  1  : извлечено точно (доверие 2)  [30E7E4C1]  (AR v1)
Трек  2  : извлечено точно (доверие 3)  [BFB87F88]  (AR v1)
Трек  3  : извлечено точно (доверие 3)  [479767C8]  (AR v1)
Трек  4  : извлечено точно (доверие 2)  [0E45BC77]  (AR v1)
Трек  5  : извлечено точно (доверие 2)  [46CCD723]  (AR v1)
Трек  6  : извлечено точно (доверие 3)  [D4A27F44]  (AR v1)
Трек  7  : извлечено точно (доверие 3)  [F6081318]  (AR v1)
Трек  8  : извлечено точно (доверие 2)  [0CF4B305]  (AR v1)
Трек  9  : извлечено точно (доверие 2)  [1261798F]  (AR v1)
Трек 10  : извлечено точно (доверие 2)  [36D061B4]  (AR v1)
Трек 11  : извлечено точно (доверие 2)  [31AE2002]  (AR v1)
Трек 12  : извлечено точно (доверие 2)  [234C94CA]  (AR v1)

Все треки извлечены точно

Конец отчёта

==== Контрольная сумма отчёта 6C4A11D79EACEB0960A1CA0608277121B46111E41BD5AD00C74C512602BF7395 ====

Отчёт auCDtect Task Manager:

Код:

-----------------------

DON'T MODIFY THIS FILE

-----------------------

PERFORMER: auCDtect Task Manager, ver. 1.5.1RC3 build 1.5.1.4
Copyright (c) 2008-2010 y-soft. All rights reserved
http://y-soft.org

ANALYZER: auCDtect: CD records authenticity detector, version 0.8.2
Copyright (c) 2004 Oleg Berngardt. All rights reserved.
Copyright (c) 2004 Alexander Djourik. All rights reserved.

FILE: Cinderella - Still Climbing.flac
  Size: 437453494 Hash: 12EE23938BE3CA360693304655DF68E7 Accuracy: -m0
  Conclusion: CDDA 100%
  Signature: F702D5592335F60A9290A30D7C7F08E0677F85EB


Реставрация от: Pashketan
Детали торрента:
Название:Cinderella - Still Climbing (1994) /2002, Monsters Of Rock Records/ [FLAC|Lossless]<Hard Rock>
Дата добавления:14 Сен 2012 08:02:39
Размер:443 MB
Раздают:1
Качают:0
Форум:Hard Rock (Lossless)

All rights reserved © 2015-2018