TORRENTS45.XYZ

Скачать Ключ / La Chiave (1983) DVDRip


Ключ / La Chiave (1983) DVDRip
Русское название: Ключ
Оригинальное название: La Chiave
Год выпуска: 1983
Страна: Италия
Жанр: Драма

Описание фильма:
Пожилой профессор-искусствовед Нино и после двадцати лет брака безумно любит свою красавицу-жену Терезу. Но она моложе мужа на 18 лет и мечтает о Ласло, женихе их дочери Лизы. Нино мучается от ревности, что еще больше разжигает его страсть. Но доктор предупреждает профессора, что у него высокое давление, и занятия сексом ему противопоказаны. Тогда Нино и Тереза начинают вести дневники, в которые записывают свои самые интимные мысли и желания. Супруги намеренно оставляют ключ от письменного стола так, чтобы каждый мог прочитать дневник другого...

Режиссер: Тинто Брасс
Актеры: Фрэнк Финлэй, Стефания Сандрелли, Франко Бранчароли, Барбара Куписти, Армандо Марра, Мария Грация Бон, Джино Кавальери, Энцо Туррин, Перо Бортолуччи, Ирма Вайтхен

Продолжительность: 01:50:10
Перевод: Профессиональный (двуголосый, закадровый)
Релиз группа:

Возрастное ограничение: 18+

Дата мировой премьеры: 19 октября 1983
Дата выхода DVD релиза: 17 февраля 2005, «Союз-Видео»

Видеокодек: Xvid
Битрейт видео: ~1502 кб/с
Размер кадра: 720x432
Качество видео: DVDRip
Аудиокодек: AC3 2.0
Битрейт аудио: 192 кб/с

MediaInfo

Общее
Полное имя : D:\Торрент раздача\kluch.1983.DVDRip.R.G.Mega.Best.avi
Формат : AVI
Формат/Информация : Audio Video Interleave
Размер файла : 1,31 Гбайт
Продолжительность : 1 ч. 50 м.
Общий поток : 1704 Кбит/сек
Программа кодирования : VirtualDubMod 1.5.10.3 | www.virtualdub-fr.org || (build 2550/release)
Библиотека кодирования : VirtualDubMod build 2550/release

Видео
Идентификатор : 0
Формат : MPEG-4 Visual
Профиль формата : Advanced Simple@L5
Параметр BVOP формата : 2
Параметр QPel формата : Нет
Параметр GMC формата : Без точки перехода
Параметр матрицы формата : Default (H.263)
Идентификатор кодека : XVID
Идентификатор кодека/Подсказка : XviD
Продолжительность : 1 ч. 50 м.
Битрейт : 1503 Кбит/сек
Ширина : 720 пикселей
Высота : 432 пикселя
Соотношение сторон : 1,667
Частота кадров : 25,000 кадров/сек
Цветовое пространство : YUV
Субдискретизация насыщенности : 4:2:0
Битовая глубина : 8 бит
Тип развёртки : Прогрессивная
Метод сжатия : С потерями
Бит/(Пиксели*Кадры) : 0.193
Размер потока : 1,16 Гбайт (88%)
Библиотека кодирования : XviD 1.2.1 (UTC 2008-12-04)

Аудио
Идентификатор : 1
Формат : AC-3
Формат/Информация : Audio Coding 3
Расширение режима : CM (complete main)
Параметр Endianness формата : Big
Идентификатор кодека : 2000
Продолжительность : 1 ч. 50 м.
Вид битрейта : Постоянный
Битрейт : 192 Кбит/сек
Каналы : 2 канала
Расположение каналов : Front: L R
Частота : 48,0 КГц
Битовая глубина : 16 бит
Метод сжатия : С потерями
Размер потока : 151 Мбайт (11%)
Выравнивание : Разделение по промежуткам
Продолжительность промежутка : 40 мс. (1,00 видеокадр)
Время предзагрузки промежутка : 500 мс.
Скриншоты:


Смотреть Online

Детали торрента:
Название:Ключ / La Chiave (1983) DVDRip
Дата добавления:11 Сен 2012 07:25:41
Размер:1,31 GB
Раздают:
Качают:0
Форум:Зарубежные Фильмы (HD*Rip/LQ, DVDRip, SATRip, VHSRip)

All rights reserved © 2015-2019