TORRENTS45.XYZ

Скачать Motorhead - Classic Album Selection [6CD Box set] (2012) [FLAC|Lossless]<Heavy Metal>


Motörhead - Classic Album Selection [6CD Box set] (2012)
Год: 2012
Жанр: Heavy Metal
Продолжительность: 03:49:16
Label: Sanctuary
Кодек: FLAC
Битрейт: Lossless
Источник: Necromanduss

1979 - Overkill (3703667)

Трек лист:
01. Overkill (5:14)
02. Stay Clean (2:42)
03. (I Won't) Pay Your Price (2:55)
04. I'll Be Your Sister (2:52)
05. Capricorn (4:09)
06. No Class (2:40)
07. Damage Case (3:01)
08. Tear Ya Down (2:40)
09. Metropolis (3:36)
10. Limb From Limb (4:56)
Total Time: 34:45

1979 - Bomber (3703668)

Трек лист:
01. Dead Men Tell No Tales (3:06)
02. Lawman (3:56)
03. Sweet Revenge (4:14)
04. Sharpshooter (3:18)
05. Poison (2:56)
06. Stone Dead Forever (4:56)
07. All The Aces (3:25)
08. Step Down (3:42)
09. Talking Head (3:43)
10. Bomber (3:50)
Total Time: 37:06

1980 - Ace Of Spades (3703672)

Трек лист:
01. Ace Of Spades (2:48)
02. Love Me Like A Reptile (3:22)
03. Shoot You In The Back (2:39)
04. Live To Win (3:36)
05. Fast And Loose (3:21)
06. (We Are) The Road Crew (3:11)
07. Fire, Fire (2:43)
08. Jailbait (3:32)
09. Dance (2:37)
10. Bite The Bullet (1:38)
11. The Chase Is Better Than The Catch (4:17)
12. The Hammer (2:48)
Total Time: 36:32

1981 - No Sleep 'til Hammersmith (3703695)

Трек лист:
01. Ace Of Spades (3:01)
02. Stay Clean (2:51)
03. Metropolis (3:31)
04. The Hammer (3:05)
05. Iron Horse / Born To Lose (3:58)
06. No Class (2:35)
07. Overkill (5:13)
08. (We Are) The Road Crew (3:32)
09. Capricorn (4:41)
10. Bomber (3:24)
11. Motorhead (4:49)
Total Time: 40:40

1982 - Iron Fist (3703685)

Трек лист:
01. Iron Fist (2:54)
02. Heart Of Stone (3:03)
03. I'm The Doctor (2:41)
04. Go To Hell (3:09)
05. Loser (3:55)
06. Sex & Outrage (2:09)
07. America (3:37)
08. Shut It Down (2:40)
09. Speedfreak (3:26)
10. (Don't Let 'Em) Grind Ya Down (3:07)
11. (Don't Need) Religion (2:42)
12. Bang To Rights (2:42)
Total Time: 36:03

1983 - Another Perfect Day (3703693)

Трек лист:
01. Back At The Funny Farm (4:13)
02. Shine (3:12)
03. Dancing On Your Grave (4:30)
04. Rock It (3:56)
05. One Track Mind (5:55)
06. Another Perfect Day (5:30)
07. Marching Off To War (4:11)
08. I Got Mine (5:24)
09. Tales Of Glory (2:55)
10. Die You Bastard (4:25)
Total Time: 44:10

Дополнительная информация:

Это новый Box set, который объединяет шесть классических альбомов Motorhead в одном. Если вы не знакомы с Motorhead или просто хотите обновить свою коллекцию, то этоn Бокс подойдет.

Отчёт ЕАС:

Отчёт ЕАС CD 1:

Код:

Exact Audio Copy V1.0 beta 3 from 29. August 2011

EAC extraction logfile from 28. June 2012, 13:14

Motorhead / Overkill (2012, 3703667)

Used drive  : PIONEER DVD-RW  DVR-219L   Adapter: 1  ID: 0

Read mode               : Secure
Utilize accurate stream : Yes
Defeat audio cache      : Yes
Make use of C2 pointers : No

Read offset correction                      : 6
Overread into Lead-In and Lead-Out          : No
Fill up missing offset samples with silence : Yes
Delete leading and trailing silent blocks   : No
Null samples used in CRC calculations       : Yes
Used interface                              : Native Win32 interface for Win NT & 2000

Used output format : Internal WAV Routines
Sample format      : 44.100 Hz; 16 Bit; Stereo

TOC of the extracted CD

     Track |   Start  |  Length  | Start sector | End sector
    ---------------------------------------------------------
        1  |  0:00.00 |  5:13.51 |         0    |    23525
        2  |  5:13.51 |  2:41.40 |     23526    |    35640
        3  |  7:55.16 |  2:55.30 |     35641    |    48795
        4  | 10:50.46 |  2:52.32 |     48796    |    61727
        5  | 13:43.03 |  4:08.63 |     61728    |    80390
        6  | 17:51.66 |  2:40.03 |     80391    |    92393
        7  | 20:31.69 |  3:01.34 |     92394    |   106002
        8  | 23:33.28 |  2:40.21 |    106003    |   118023
        9  | 26:13.49 |  3:35.63 |    118024    |   134211
       10  | 29:49.37 |  4:55.43 |    134212    |   156379

Range status and errors

Selected range

     Filename D:\.www.AvaxHome.ru\Motorhead - Overkill (2012, 3703667).wav

     Peak level 99.7 %
     Extraction speed 6.4 X
     Range quality 100.0 %
     Test CRC CEA885E8
     Copy CRC CEA885E8
     Copy OK

No errors occurred

AccurateRip summary

Track  1  not present in database
Track  2  not present in database
Track  3  not present in database
Track  4  not present in database
Track  5  not present in database
Track  6  not present in database
Track  7  not present in database
Track  8  not present in database
Track  9  not present in database
Track 10  not present in database

None of the tracks are present in the AccurateRip database

End of status report

---- CUETools DB Plugin V2.1.3

[CTDB TOCID: tSGa5Nyrw1XtMVAvbZWDz8WQSkI-] found, Submit result: tSGa5Nyrw1XtMVAvbZWDz8WQSkI- has been confirmed
[19a55a6b] (1/1) Accurately ripped

==== Log checksum 45B27591A67A19CA179275483968D24C0A8B08FF8AA876309EC1FD3EFCF165B1 ====

Отчёт ЕАС CD 2:

Код:

Exact Audio Copy V1.0 beta 3 from 29. August 2011

EAC extraction logfile from 28. June 2012, 14:19

Motorhead / Bomber (2012, 3703668)

Used drive  : PIONEER DVD-RW  DVR-219L   Adapter: 1  ID: 0

Read mode               : Secure
Utilize accurate stream : Yes
Defeat audio cache      : Yes
Make use of C2 pointers : No

Read offset correction                      : 6
Overread into Lead-In and Lead-Out          : No
Fill up missing offset samples with silence : Yes
Delete leading and trailing silent blocks   : No
Null samples used in CRC calculations       : Yes
Used interface                              : Native Win32 interface for Win NT & 2000

Used output format : Internal WAV Routines
Sample format      : 44.100 Hz; 16 Bit; Stereo

TOC of the extracted CD

     Track |   Start  |  Length  | Start sector | End sector
    ---------------------------------------------------------
        1  |  0:00.00 |  3:05.39 |         0    |    13913
        2  |  3:05.39 |  3:56.23 |     13914    |    31636
        3  |  7:01.62 |  4:14.10 |     31637    |    50696
        4  | 11:15.72 |  3:18.25 |     50697    |    65571
        5  | 14:34.22 |  2:55.46 |     65572    |    78742
        6  | 17:29.68 |  4:56.31 |     78743    |   100973
        7  | 22:26.24 |  3:25.21 |    100974    |   116369
        8  | 25:51.45 |  3:42.35 |    116370    |   133054
        9  | 29:34.05 |  3:42.55 |    133055    |   149759
       10  | 33:16.60 |  3:49.48 |    149760    |   166982

Range status and errors

Selected range

     Filename D:\.www.AvaxHome.ru\Motorhead - Bomber (2012, 3703668).wav

     Peak level 98.8 %
     Extraction speed 6.5 X
     Range quality 100.0 %
     Test CRC 20DE9945
     Copy CRC 20DE9945
     Copy OK

No errors occurred

AccurateRip summary

Track  1  not present in database
Track  2  not present in database
Track  3  not present in database
Track  4  not present in database
Track  5  not present in database
Track  6  not present in database
Track  7  not present in database
Track  8  not present in database
Track  9  not present in database
Track 10  not present in database

None of the tracks are present in the AccurateRip database

End of status report

---- CUETools DB Plugin V2.1.3

[CTDB TOCID: LkCZcxC2ctJL_buQSgLdJ_6RNms-] disk not present in database, Submit result: LkCZcxC2ctJL_buQSgLdJ_6RNms- has been uploaded

==== Log checksum F2FD72E50AC4924609E8D674CA3407B00A2E8799B844D191D800A34F1F2E3F00 ====

Отчёт ЕАС CD 3:

Код:

Exact Audio Copy V1.0 beta 3 from 29. August 2011

EAC extraction logfile from 28. June 2012, 12:44

Motorhead / Ace Of Spades (2012, 3703672)

Used drive  : PIONEER DVD-RW  DVR-219L   Adapter: 1  ID: 0

Read mode               : Secure
Utilize accurate stream : Yes
Defeat audio cache      : Yes
Make use of C2 pointers : No

Read offset correction                      : 6
Overread into Lead-In and Lead-Out          : No
Fill up missing offset samples with silence : Yes
Delete leading and trailing silent blocks   : No
Null samples used in CRC calculations       : Yes
Used interface                              : Native Win32 interface for Win NT & 2000

Used output format : Internal WAV Routines
Sample format      : 44.100 Hz; 16 Bit; Stereo

TOC of the extracted CD

     Track |   Start  |  Length  | Start sector | End sector
    ---------------------------------------------------------
        1  |  0:00.00 |  2:48.35 |         0    |    12634
        2  |  2:48.35 |  3:21.51 |     12635    |    27760
        3  |  6:10.11 |  2:38.56 |     27761    |    39666
        4  |  8:48.67 |  3:36.04 |     39667    |    55870
        5  | 12:24.71 |  3:21.18 |     55871    |    70963
        6  | 15:46.14 |  3:11.05 |     70964    |    85293
        7  | 18:57.19 |  2:43.16 |     85294    |    97534
        8  | 21:40.35 |  3:32.35 |     97535    |   113469
        9  | 25:12.70 |  2:36.48 |    113470    |   125217
       10  | 27:49.43 |  1:38.01 |    125218    |   132568
       11  | 29:27.44 |  4:17.06 |    132569    |   151849
       12  | 33:44.50 |  2:47.55 |    151850    |   164429

Range status and errors

Selected range

     Filename D:\.www.AvaxHome.ru\Motorhead - Ace Of Spades (2012, 3703672).wav

     Peak level 97.9 %
     Extraction speed 6.5 X
     Range quality 100.0 %
     Test CRC E21F986B
     Copy CRC E21F986B
     Copy OK

No errors occurred

AccurateRip summary

Track  1  not present in database
Track  2  not present in database
Track  3  not present in database
Track  4  not present in database
Track  5  not present in database
Track  6  not present in database
Track  7  not present in database
Track  8  not present in database
Track  9  not present in database
Track 10  not present in database
Track 11  not present in database
Track 12  not present in database

None of the tracks are present in the AccurateRip database

End of status report

---- CUETools DB Plugin V2.1.3

[CTDB TOCID: Zr9LJA8zYVdqgVhNByIUc7sa9TE-] disk not present in database, Submit result: Zr9LJA8zYVdqgVhNByIUc7sa9TE- has been uploaded

==== Log checksum 3429F826F4762F541923A92DD12FD341B284CD51F61C9B878BB1A2F8719F6E17 ====

Отчёт ЕАС CD 4:

Код:

Exact Audio Copy V1.0 beta 3 from 29. August 2011

EAC extraction logfile from 28. June 2012, 13:01

Motorhead / No Sleep 'til Hammersmith (2012, 3703695)

Used drive  : PIONEER DVD-RW  DVR-219L   Adapter: 1  ID: 0

Read mode               : Secure
Utilize accurate stream : Yes
Defeat audio cache      : Yes
Make use of C2 pointers : No

Read offset correction                      : 6
Overread into Lead-In and Lead-Out          : No
Fill up missing offset samples with silence : Yes
Delete leading and trailing silent blocks   : No
Null samples used in CRC calculations       : Yes
Used interface                              : Native Win32 interface for Win NT & 2000

Used output format : Internal WAV Routines
Sample format      : 44.100 Hz; 16 Bit; Stereo

TOC of the extracted CD

     Track |   Start  |  Length  | Start sector | End sector
    ---------------------------------------------------------
        1  |  0:00.00 |  3:01.01 |         0    |    13575
        2  |  3:01.01 |  2:51.01 |     13576    |    26401
        3  |  5:52.02 |  3:31.21 |     26402    |    42247
        4  |  9:23.23 |  3:05.30 |     42248    |    56152
        5  | 12:28.53 |  3:58.07 |     56153    |    74009
        6  | 16:26.60 |  2:34.53 |     74010    |    85612
        7  | 19:01.38 |  5:13.17 |     85613    |   109104
        8  | 24:14.55 |  3:31.50 |    109105    |   124979
        9  | 27:46.30 |  4:40.48 |    124980    |   146027
       10  | 32:27.03 |  3:24.35 |    146028    |   161362
       11  | 35:51.38 |  4:48.54 |    161363    |   183016

Range status and errors

Selected range

     Filename D:\.www.AvaxHome.ru\Motorhead - No Sleep 'til Hammersmith (2012, 3703695).wav

     Peak level 99.7 %
     Extraction speed 6.6 X
     Range quality 99.9 %
     Test CRC A442A01E
     Copy CRC A442A01E
     Copy OK

No errors occurred

AccurateRip summary

Track  1  not present in database
Track  2  not present in database
Track  3  not present in database
Track  4  not present in database
Track  5  not present in database
Track  6  not present in database
Track  7  not present in database
Track  8  not present in database
Track  9  not present in database
Track 10  not present in database
Track 11  not present in database

None of the tracks are present in the AccurateRip database

End of status report

---- CUETools DB Plugin V2.1.3

[CTDB TOCID: ers2b9o1GH5.rQp8DtKMbXTHYBk-] disk not present in database, Submit result: ers2b9o1GH5.rQp8DtKMbXTHYBk- has been uploaded

==== Log checksum BE9DDC71852753A894667C67E9984D371B2A6F89547DD57F63C9478ED0E83405 ====

Отчёт ЕАС CD 5:

Код:

Exact Audio Copy V1.0 beta 3 from 29. August 2011

EAC extraction logfile from 28. June 2012, 12:12

Motorhead / Iron Fist (2012, 3703685)

Used drive  : PIONEER DVD-RW  DVR-219L   Adapter: 1  ID: 0

Read mode               : Secure
Utilize accurate stream : Yes
Defeat audio cache      : Yes
Make use of C2 pointers : No

Read offset correction                      : 6
Overread into Lead-In and Lead-Out          : No
Fill up missing offset samples with silence : Yes
Delete leading and trailing silent blocks   : No
Null samples used in CRC calculations       : Yes
Used interface                              : Native Win32 interface for Win NT & 2000

Used output format : Internal WAV Routines
Sample format      : 44.100 Hz; 16 Bit; Stereo

TOC of the extracted CD

     Track |   Start  |  Length  | Start sector | End sector
    ---------------------------------------------------------
        1  |  0:00.00 |  2:53.38 |         0    |    13012
        2  |  2:53.38 |  3:02.57 |     13013    |    26719
        3  |  5:56.20 |  2:40.59 |     26720    |    38778
        4  |  8:37.04 |  3:08.61 |     38779    |    52939
        5  | 11:45.65 |  3:55.21 |     52940    |    70585
        6  | 15:41.11 |  2:08.70 |     70586    |    80255
        7  | 17:50.06 |  3:36.67 |     80256    |    96522
        8  | 21:26.73 |  2:39.74 |     96523    |   108521
        9  | 24:06.72 |  3:25.56 |    108522    |   123952
       10  | 27:32.53 |  3:07.25 |    123953    |   138002
       11  | 30:40.03 |  2:41.63 |    138003    |   150140
       12  | 33:21.66 |  2:42.08 |    150141    |   162298

Range status and errors

Selected range

     Filename D:\.www.AvaxHome.ru\Motorhead - Iron Fist (2012, 3703685).wav

     Peak level 99.7 %
     Extraction speed 6.4 X
     Range quality 99.9 %
     Test CRC D6566CC5
     Copy CRC D6566CC5
     Copy OK

No errors occurred

AccurateRip summary

Track  1  not present in database
Track  2  not present in database
Track  3  not present in database
Track  4  not present in database
Track  5  not present in database
Track  6  not present in database
Track  7  not present in database
Track  8  not present in database
Track  9  not present in database
Track 10  not present in database
Track 11  not present in database
Track 12  not present in database

None of the tracks are present in the AccurateRip database

End of status report

---- CUETools DB Plugin V2.1.3

[CTDB TOCID: XPmztRTFofecHKr5TWrD5cVZC.k-] disk not present in database, Submit result: XPmztRTFofecHKr5TWrD5cVZC.k- has been uploaded

==== Log checksum 2AB783BBA2459C200DA7D6FDD670F761C7DE21957AD3B7B6E703BCDC50497C88 ====

Отчёт ЕАС CD 6:

Код:

Exact Audio Copy V1.0 beta 3 from 29. August 2011

EAC extraction logfile from 28. June 2012, 12:31

Motorhead / Another Perfect Day (2012, 3703693)

Used drive  : PIONEER DVD-RW  DVR-219L   Adapter: 1  ID: 0

Read mode               : Secure
Utilize accurate stream : Yes
Defeat audio cache      : Yes
Make use of C2 pointers : No

Read offset correction                      : 6
Overread into Lead-In and Lead-Out          : No
Fill up missing offset samples with silence : Yes
Delete leading and trailing silent blocks   : No
Null samples used in CRC calculations       : Yes
Used interface                              : Native Win32 interface for Win NT & 2000

Used output format : Internal WAV Routines
Sample format      : 44.100 Hz; 16 Bit; Stereo

TOC of the extracted CD

     Track |   Start  |  Length  | Start sector | End sector
    ---------------------------------------------------------
        1  |  0:00.00 |  4:13.34 |         0    |    19008
        2  |  4:13.34 |  3:11.63 |     19009    |    33396
        3  |  7:25.22 |  4:29.63 |     33397    |    53634
        4  | 11:55.10 |  3:55.45 |     53635    |    71304
        5  | 15:50.55 |  5:54.73 |     71305    |    97927
        6  | 21:45.53 |  5:30.00 |     97928    |   122677
        7  | 27:15.53 |  4:10.53 |    122678    |   141480
        8  | 31:26.31 |  5:24.29 |    141481    |   165809
        9  | 36:50.60 |  2:55.34 |    165810    |   178968
       10  | 39:46.19 |  4:24.40 |    178969    |   198808

Range status and errors

Selected range

     Filename D:\.www.AvaxHome.ru\Motorhead - Another Perfect Day (2012, 3703693).wav

     Peak level 99.7 %
     Extraction speed 6.8 X
     Range quality 100.0 %
     Test CRC 7D152470
     Copy CRC 7D152470
     Copy OK

No errors occurred

AccurateRip summary

Track  1  not present in database
Track  2  not present in database
Track  3  not present in database
Track  4  not present in database
Track  5  not present in database
Track  6  not present in database
Track  7  not present in database
Track  8  not present in database
Track  9  not present in database
Track 10  not present in database

None of the tracks are present in the AccurateRip database

End of status report

---- CUETools DB Plugin V2.1.3

[CTDB TOCID: 11Fy5wcr_h02iy3aPLG45CNawQo-] disk not present in database, Submit result: 11Fy5wcr_h02iy3aPLG45CNawQo- has been uploaded

==== Log checksum FAC62DA0D46694E5CC7CA5BE32627D2B48D2240AF2656E309995018B7A986ABA ====

Отчёт auCDtect Task manager:

Отчёт auCDtect Task manager CD 1:

Код:

-----------------------

DON'T MODIFY THIS FILE

-----------------------

PERFORMER: auCDtect Task Manager, ver. 1.5.1RC4 build 1.5.1.5
Copyright (c) 2008-2010 y-soft. All rights reserved
http://y-soft.org

ANALYZER: auCDtect: CD records authenticity detector, version 0.8.2
Copyright (c) 2004 Oleg Berngardt. All rights reserved.
Copyright (c) 2004 Alexander Djourik. All rights reserved.

FILE: Motorhead - Overkill (2012, 3703667).wav
  Size: 367805804 Hash: 6A8C5D8ADC23BC12B3376603C057FCF7 Accuracy: -m0
  Conclusion: CDDA 100%
  Signature: D7274BF1E072B3E60A1C0EFA82B2171B3BA0B882

Отчёт auCDtect Task manager CD 2:

Код:

-----------------------

DON'T MODIFY THIS FILE

-----------------------

PERFORMER: auCDtect Task Manager, ver. 1.5.1RC4 build 1.5.1.5
Copyright (c) 2008-2010 y-soft. All rights reserved
http://y-soft.org

ANALYZER: auCDtect: CD records authenticity detector, version 0.8.2
Copyright (c) 2004 Oleg Berngardt. All rights reserved.
Copyright (c) 2004 Alexander Djourik. All rights reserved.

FILE: Motorhead - Bomber (2012, 3703668).wav
  Size: 392744060 Hash: 9A73536BB9DA91C80AF5FFBEBFF6D3BA Accuracy: -m0
  Conclusion: CDDA 100%
  Signature: AE82DFA7F102D92717C83896B180938350A4C9A8

Отчёт auCDtect Task manager CD 3:

Код:

-----------------------

DON'T MODIFY THIS FILE

-----------------------

PERFORMER: auCDtect Task Manager, ver. 1.5.1RC4 build 1.5.1.5
Copyright (c) 2008-2010 y-soft. All rights reserved
http://y-soft.org

ANALYZER: auCDtect: CD records authenticity detector, version 0.8.2
Copyright (c) 2004 Oleg Berngardt. All rights reserved.
Copyright (c) 2004 Alexander Djourik. All rights reserved.

FILE: Motorhead - Ace Of Spades (2012, 3703672).wav
  Size: 386739404 Hash: AF4C9B814243C5ACA606B089B0CB613B Accuracy: -m0
  Conclusion: CDDA 100%
  Signature: E8663347461E04A8D72118B150B27CF0A471617D

Отчёт auCDtect Task manager CD 4:

Код:

-----------------------

DON'T MODIFY THIS FILE

-----------------------

PERFORMER: auCDtect Task Manager, ver. 1.5.1RC4 build 1.5.1.5
Copyright (c) 2008-2010 y-soft. All rights reserved
http://y-soft.org

ANALYZER: auCDtect: CD records authenticity detector, version 0.8.2
Copyright (c) 2004 Oleg Berngardt. All rights reserved.
Copyright (c) 2004 Alexander Djourik. All rights reserved.

FILE: Motorhead - No Sleep 'til Hammersmith (2012, 3703695).wav
  Size: 430456028 Hash: 1D51226715EE997681E2EB62053BF7C6 Accuracy: -m0
  Conclusion: CDDA 100%
  Signature: EA3217BDE45F3D7BD59AA76B174D130EB8435965

Отчёт auCDtect Task manager CD 5:

Код:

-----------------------

DON'T MODIFY THIS FILE

-----------------------

PERFORMER: auCDtect Task Manager, ver. 1.5.1RC4 build 1.5.1.5
Copyright (c) 2008-2010 y-soft. All rights reserved
http://y-soft.org

ANALYZER: auCDtect: CD records authenticity detector, version 0.8.2
Copyright (c) 2004 Oleg Berngardt. All rights reserved.
Copyright (c) 2004 Alexander Djourik. All rights reserved.

FILE: Motorhead - Iron Fist (2012, 3703685).wav
  Size: 381727292 Hash: A895C5B770D658FF46291E528505EAA4 Accuracy: -m0
  Conclusion: CDDA 100%
  Signature: B0F0C0922B6F64496736535FB9E2B1556FE54461

Отчёт auCDtect Task manager CD 6:

Код:

-----------------------

DON'T MODIFY THIS FILE

-----------------------

PERFORMER: auCDtect Task Manager, ver. 1.5.1RC4 build 1.5.1.5
Copyright (c) 2008-2010 y-soft. All rights reserved
http://y-soft.org

ANALYZER: auCDtect: CD records authenticity detector, version 0.8.2
Copyright (c) 2004 Oleg Berngardt. All rights reserved.
Copyright (c) 2004 Alexander Djourik. All rights reserved.

FILE: Motorhead - Another Perfect Day (2012, 3703693).wav
  Size: 467598812 Hash: D033C9AEBD60A6A7F1D1A25D16288E3C Accuracy: -m0
  Conclusion: CDDA 100%
  Signature: 4F98FA59CA3F6BA43E50715170F459FDF9037C4D

Детали торрента:
Название:Motorhead - Classic Album Selection [6CD Box set] (2012) [FLAC|Lossless]<Heavy Metal>
Дата добавления:05 Сен 2012 11:30:21
Размер:1,94 GB
Раздают:1
Качают:0
Форум:Metal (Lossless)

All rights reserved © 2015-2019