TORRENTS45.XYZ

Скачать Манон Леско, или История кавалера де Гриё / Manon Lescaut (2011) DVDRip


Манон Леско, или История кавалера де Гриё / Manon Lescaut (2011) DVDRip
Русское название: Манон Леско, или История кавалера де Гриё
Оригинальное название: Manon Lescaut
Год выпуска: 2011
Произхводство: Франция | Cipango, K'Ien Productions
Жанр: Мелодрама, История
Перевод: Многоголосый закадровый [лицензия]
Субтитры: Отсутствуют
Дата российской премьеры: 15 декабря 2011
Дата выхода DVD релиза: 26 апреля 2012, «Cinema Prestige»
Режиссер: Габриэль Агион
Актеры: Селин Перро, Сэмюэл Тейс, Ксавьер Галлаис, Лорен Стокер, Паскаль Хено, Робер Ирш, Пьер Мур
Описание фильма:
Франция, начало XVIII века. Кавалер де Грие, 17-летний юноша благородного происхождения, с привлекательной внешностью и блестящими способностями, оканчивает курс философских наук в Амьене и должен отправиться в академию, чтобы продолжить обучение. Но все его жизненные планы рушатся в один день, когда де Грие знакомится с юной Манон Леско.Девушка по воле родителей направляется в монастырь, дабы там обуздали ее склонность к удовольствиям. Она ищет способ вернуть себе свободу и будет признательна любому, кто поможет ей в этом. Де Грие, околдованный красотой Манон, предлагает ей бежать вместе с ним в Париж и там обвенчаться…


Продолжительность: 01:31:33
Качество видео: DVDRip

Видеокодек: Xvid
Битрейт видео: ~ 1939 Кбит/сек
Размер кадра: 720 x 400 (1.800) at 25.000 fps
Аудиокодек: AC3 2.0
Битрейт аудио: 192 Кбит/сек, 48,0 КГц

Релиз группа:

MediaInfo:

Код:

Полное имя                               : G:\000 Фильмы\Манон Леско, или История кавалера де Гриё  Manon Lescaut (2011) DVDRip\Manon.Lesko.ili.Istorija.kavalera.de.Grijo.2011.P.DVDRip.torrents45.xyzi
Формат                                   : AVI
Формат/Информация                        : Audio Video Interleave
Размер файла                             : 1,37 Гбайт
Продолжительность                        : 1 ч. 31 м.
Общий поток                              : 2140 Кбит/сек
Программа кодирования                    : VirtualDubMod 1.5.10.3 | www.virtualdub-fr.org || (build 2550/release)
Библиотека кодирования                   : VirtualDubMod build 2550/release

Видео
Идентификатор                            : 0
Формат                                   : MPEG-4 Visual
Профиль формата                          : Advanced Simple@L5
Параметр BVOP формата                    : 2
Параметр QPel формата                    : Нет
Параметр GMC формата                     : Без точки перехода
Параметр матрицы формата                 : Выборочная
Идентификатор кодека                     : XVID
Идентификатор кодека/Подсказка           : XviD
Продолжительность                        : 1 ч. 31 м.
Битрейт                                  : 1939 Кбит/сек
Ширина                                   : 720 пикселей
Высота                                   : 400 пикселей
Соотношение сторон                       : 16:9
Частота кадров                           : 25,000 кадров/сек
Цветовое пространство                    : YUV
Субдискретизация насыщенности            : 4:2:0
Битовая глубина                          : 8 бит
Тип развёртки                            : Прогрессивная
Метод сжатия                             : С потерями
Бит/(Пиксели*Кадры)                      : 0.269
Размер потока                            : 1,24 Гбайт (91%)
Библиотека кодирования                   : XviD 1.2.1 (UTC 2008-12-04)

Аудио
Идентификатор                            : 1
Формат                                   : AC-3
Формат/Информация                        : Audio Coding 3
Расширение режима                        : CM (complete main)
Параметр Endianness формата              : Big
Идентификатор кодека                     : 2000
Продолжительность                        : 1 ч. 31 м.
Вид битрейта                             : Постоянный
Битрейт                                  : 192 Кбит/сек
Каналы                                   : 2 канала
Расположение каналов                     : Front: L R
Частота                                  : 48,0 КГц
Битовая глубина                          : 16 бит
Метод сжатия                             : С потерями
Размер потока                            : 126 Мбайт (9%)
Выравнивание                             : Разделение по промежуткам
Продолжительность промежутка             : 40  мс. (1,00 видеокадр)
Время предзагрузки промежутка            : 500  мс.

Скриншоты:




Детали торрента:
Название:Манон Леско, или История кавалера де Гриё / Manon Lescaut (2011) DVDRip
Дата добавления:26 Июн 2012 22:48:09
Размер:1,37 GB
Раздают:1
Качают:0
Форум:Зарубежные Фильмы (HD*Rip/LQ, DVDRip, SATRip, VHSRip)

All rights reserved © 2015-2019